(Score) Розовая Пантера / The Ultimate Pink Panther (by Henry Mancini) - 2004, FLAC (tracks+.cue), lossless

Ответить на тему
Статистика раздачи [Обновить пиров]
Размер:  656 MB   |    Зарегистрирован:  3 месяца 7 дней   |    Скачан:  0 раз

Полного источника не было: Никогда

 
   
 
 
 
Автор Сообщение

torrentc.info

Создавать темы 09-Авг-2018 20:15

[Цитировать]

Henry Mancini ‎– The Ultimate Pink Panther
Жанр: Score
Год выхода диска: 2004
Страна-производитель диска: EU
Издатель (лейбл): BMG Heritage
Номер по каталогу: 82876 59882 2
Аудиокодек: FLAC (*.flac)
Тип рипа: tracks+.cue
Битрейт аудио: lossless
Продолжительность: 01:11:26
Источник: обмен
Наличие сканов в содержимом раздачи: да
Треклист:
01. Henry Mancini - The Pink Panther Theme (2:38)
02. Henry Mancini - Royal Blue (3:13)
03. Henry Mancini - Champagne And Quail (2:48)
04. Henry Mancini - The Village Inn (2:38)
05. Henry Mancini - It Had Better Be Tonight (1:59)
06. Henry Mancini - Piano And Strings (2:39)
07. Henry Mancini - Shades Of Sennett (1:30)
08. Henry Mancini - A Shot In The Dark (2:31)
09. Henry Mancini - The Shadow Of Paris (2:59)
10. Henry Mancini - Summer In Gstaad (2:03)
11. Henry Mancini - So Smooth (4:06)
12. Henry Mancini - The Greatest Gift (3:21)
13. Henry Mancini - The Orange Float (3:11)
14. Henry Mancini - Dreamy (3:23)
15. Henry Mancini - The Wet Look (3:10)
16. Henry Mancini - Main Title From The Pink Panther Strikes Again (2:39)
17. Henry Mancini - Bier Fest Polka (2:45)
18. Tom Jones - Come To Me (4:39)
19. Henry Mancini - Until You Love Me (3:21)
20. Henry Mancini - The Inspector Clouseau Theme (3:02)
21. Henry Mancini - After The Shower (3:41)
22. Henry Mancini - Hong Kong Fireworks (3:21)
23. Inspector Clouseau And The Sûreté Brass Band - Thank Heaven For Little Girls (2:36)
24. Bobby McFerrin - The Pink Panther Theme (3:10)

Лог создания рипа

Exact Audio Copy V1.0 beta 3 from 29. August 2011
EAC extraction logfile from 25. July 2015, 8:31
Henry Mancini / The Ultimate Pink Panther
Used drive : PLEXTOR BD-R PX-B950SA Adapter: 3 ID: 0
Read mode : SecureUtilize accurate stream : YesDefeat audio cache : YesMake use of C2 pointers : No
Read offset correction : 6Overread into Lead-In and Lead-Out : NoFill up missing offset samples with silence : YesDelete leading and trailing silent blocks : NoNull samples used in CRC calculations : YesUsed interface : Native Win32 interface for Win NT & 2000Gap handling : Appended to previous track
Used output format : User Defined EncoderSelected bitrate : 1024 kBit/sQuality : HighAdd ID3 tag : NoCommand line compressor : C:\Program Files (x86)\Exact Audio Copy\Flac\flac.exeAdditional command line options : -8 -V -T "ARTIST=%artist%" -T "TITLE=%title%" -T "ALBUM=%albumtitle%" -T "DATE=%year%" -T "TRACKNUMBER=%tracknr%" -T "TOTALTRACKS=%numtracks%" -T "GENRE=%genre%" -T "ALBUMARTIST=%albumartist%" -T "ALBUM ARTIST=%albumartist%" -T "COMMENT=EAC Secure Mode, Test & Copy, AccurateRip, FLAC -8" %source%
TOC of the extracted CD
Track | Start | Length | Start sector | End sector --------------------------------------------------------- 1 | 0:00.00 | 2:38.32 | 0 | 11881 2 | 2:38.32 | 3:12.58 | 11882 | 26339 3 | 5:51.15 | 2:47.50 | 26340 | 38914 4 | 8:38.65 | 2:38.12 | 38915 | 50776 5 | 11:17.02 | 1:59.13 | 50777 | 59714 6 | 13:16.15 | 2:38.52 | 59715 | 71616 7 | 15:54.67 | 1:29.48 | 71617 | 78339 8 | 17:24.40 | 2:31.25 | 78340 | 89689 9 | 19:55.65 | 2:59.35 | 89690 | 103149 10 | 22:55.25 | 2:03.32 | 103150 | 112406 11 | 24:58.57 | 4:06.33 | 112407 | 130889 12 | 29:05.15 | 3:21.35 | 130890 | 145999 13 | 32:26.50 | 3:10.60 | 146000 | 160309 14 | 35:37.35 | 3:23.17 | 160310 | 175551 15 | 39:00.52 | 3:10.03 | 175552 | 189804 16 | 42:10.55 | 2:38.72 | 189805 | 201726 17 | 44:49.52 | 2:45.35 | 201727 | 214136 18 | 47:35.12 | 4:38.70 | 214137 | 235056 19 | 52:14.07 | 3:21.33 | 235057 | 250164 20 | 55:35.40 | 3:02.17 | 250165 | 263831 21 | 58:37.57 | 3:40.65 | 263832 | 280396 22 | 62:18.47 | 3:21.35 | 280397 | 295506 23 | 65:40.07 | 2:36.18 | 295507 | 307224 24 | 68:16.25 | 3:09.72 | 307225 | 321471
Track 1
Filename Z:\#Torrents\Eigene\#EAC default\Henry Mancini - Ultimate Pink Panther (2004) [FLAC]\01 - The Pink Panther Theme.wav
Pre-gap length 0:00:02.00
Peak level 97.5 % Extraction speed 4.5 X Track quality 100.0 % Test CRC 1BF33E23 Copy CRC 1BF33E23 Accurately ripped (confidence 9) [D499BEC6] (AR v2) Copy OK
Track 2
Filename Z:\#Torrents\Eigene\#EAC default\Henry Mancini - Ultimate Pink Panther (2004) [FLAC]\02 - Royal Blue.wav
Pre-gap length 0:00:01.12
Peak level 86.2 % Extraction speed 5.0 X Track quality 100.0 % Test CRC 23E374BC Copy CRC 23E374BC Accurately ripped (confidence 9) [A7046DDC] (AR v2) Copy OK
Track 3
Filename Z:\#Torrents\Eigene\#EAC default\Henry Mancini - Ultimate Pink Panther (2004) [FLAC]\03 - Champagne And Quail.wav
Pre-gap length 0:00:01.28
Peak level 91.3 % Extraction speed 4.1 X Track quality 99.9 % Test CRC BA253FD9 Copy CRC BA253FD9 Accurately ripped (confidence 9) [BFAAF4FA] (AR v2) Copy OK
Track 4
Filename Z:\#Torrents\Eigene\#EAC default\Henry Mancini - Ultimate Pink Panther (2004) [FLAC]\04 - The Village Inn.wav
Pre-gap length 0:00:01.60
Peak level 83.9 % Extraction speed 5.5 X Track quality 100.0 % Test CRC FD256426 Copy CRC FD256426 Accurately ripped (confidence 9) [EA5A53CF] (AR v2) Copy OK
Track 5
Filename Z:\#Torrents\Eigene\#EAC default\Henry Mancini - Ultimate Pink Panther (2004) [FLAC]\05 - It Had Better Be Tonight.wav
Pre-gap length 0:00:01.42
Peak level 99.8 % Extraction speed 3.9 X Track quality 99.9 % Test CRC 8FA687B9 Copy CRC 8FA687B9 Accurately ripped (confidence 9) [2856C50B] (AR v2) Copy OK
Track 6
Filename Z:\#Torrents\Eigene\#EAC default\Henry Mancini - Ultimate Pink Panther (2004) [FLAC]\06 - Piano And Strings.wav
Pre-gap length 0:00:01.13
Peak level 95.2 % Extraction speed 4.6 X Track quality 99.9 % Test CRC 3032AC8F Copy CRC 3032AC8F Accurately ripped (confidence 9) [5E09A614] (AR v2) Copy OK
Track 7
Filename Z:\#Torrents\Eigene\#EAC default\Henry Mancini - Ultimate Pink Panther (2004) [FLAC]\07 - Shades Of Sennett.wav
Pre-gap length 0:00:01.50
Peak level 90.5 % Extraction speed 3.6 X Track quality 99.8 % Test CRC 100E79DE Copy CRC 100E79DE Accurately ripped (confidence 9) [54FC1555] (AR v2) Copy OK
Track 8
Filename Z:\#Torrents\Eigene\#EAC default\Henry Mancini - Ultimate Pink Panther (2004) [FLAC]\08 - A Shot In The Dark.wav
Pre-gap length 0:00:03.50
Peak level 88.4 % Extraction speed 6.2 X Track quality 100.0 % Test CRC E4F7251C Copy CRC E4F7251C Accurately ripped (confidence 9) [E1FEB6D1] (AR v2) Copy OK
Track 9
Filename Z:\#Torrents\Eigene\#EAC default\Henry Mancini - Ultimate Pink Panther (2004) [FLAC]\09 - The Shadow Of Paris.wav
Pre-gap length 0:00:01.48
Peak level 96.9 % Extraction speed 6.6 X Track quality 100.0 % Test CRC 4F3AF7A4 Copy CRC 4F3AF7A4 Accurately ripped (confidence 8) [C9F165C3] (AR v2) Copy OK
Track 10
Filename Z:\#Torrents\Eigene\#EAC default\Henry Mancini - Ultimate Pink Panther (2004) [FLAC]\10 - Summer In Gstaad.wav
Pre-gap length 0:00:03.58
Peak level 94.3 % Extraction speed 6.3 X Track quality 100.0 % Test CRC 7F943753 Copy CRC 7F943753 Accurately ripped (confidence 9) [9047EF5D] (AR v2) Copy OK
Track 11
Filename Z:\#Torrents\Eigene\#EAC default\Henry Mancini - Ultimate Pink Panther (2004) [FLAC]\11 - So Smooth.wav
Pre-gap length 0:00:00.72
Peak level 99.2 % Extraction speed 7.4 X Track quality 100.0 % Test CRC DEF9E5C7 Copy CRC DEF9E5C7 Accurately ripped (confidence 9) [562A63F6] (AR v2) Copy OK
Track 12
Filename Z:\#Torrents\Eigene\#EAC default\Henry Mancini - Ultimate Pink Panther (2004) [FLAC]\12 - The Greatest Gift.wav
Pre-gap length 0:00:00.65
Peak level 99.8 % Extraction speed 7.4 X Track quality 100.0 % Test CRC 876BEAC8 Copy CRC 876BEAC8 Accurately ripped (confidence 9) [599918F8] (AR v2) Copy OK
Track 13
Filename Z:\#Torrents\Eigene\#EAC default\Henry Mancini - Ultimate Pink Panther (2004) [FLAC]\13 - The Orange Float.wav
Pre-gap length 0:00:02.20
Peak level 99.7 % Extraction speed 7.6 X Track quality 100.0 % Test CRC 10CDCCF7 Copy CRC 10CDCCF7 Accurately ripped (confidence 9) [7EC2743C] (AR v2) Copy OK
Track 14
Filename Z:\#Torrents\Eigene\#EAC default\Henry Mancini - Ultimate Pink Panther (2004) [FLAC]\14 - Dreamy.wav
Pre-gap length 0:00:01.10
Peak level 99.2 % Extraction speed 7.9 X Track quality 100.0 % Test CRC 811D1795 Copy CRC 811D1795 Accurately ripped (confidence 9) [EEE2C4BE] (AR v2) Copy OK
Track 15
Filename Z:\#Torrents\Eigene\#EAC default\Henry Mancini - Ultimate Pink Panther (2004) [FLAC]\15 - The Wet Look.wav
Pre-gap length 0:00:01.17
Peak level 97.6 % Extraction speed 8.0 X Track quality 100.0 % Test CRC 8983C972 Copy CRC 8983C972 Accurately ripped (confidence 9) [75563795] (AR v2) Copy OK
Track 16
Filename Z:\#Torrents\Eigene\#EAC default\Henry Mancini - Ultimate Pink Panther (2004) [FLAC]\16 - Main Title From The Pink Panther Strikes Again.wav
Pre-gap length 0:00:03.23
Peak level 99.8 % Extraction speed 8.1 X Track quality 100.0 % Test CRC AD9CA582 Copy CRC AD9CA582 Accurately ripped (confidence 9) [74F5F18D] (AR v2) Copy OK
Track 17
Filename Z:\#Torrents\Eigene\#EAC default\Henry Mancini - Ultimate Pink Panther (2004) [FLAC]\17 - Bier Fest Polka.wav
Pre-gap length 0:00:01.62
Peak level 99.8 % Extraction speed 8.3 X Track quality 100.0 % Test CRC 5257BD00 Copy CRC 5257BD00 Accurately ripped (confidence 8) [DBA64088] (AR v2) Copy OK
Track 18
Filename Z:\#Torrents\Eigene\#EAC default\Henry Mancini - Ultimate Pink Panther (2004) [FLAC]\18 - Come To Me.wav
Pre-gap length 0:00:00.72
Peak level 99.5 % Extraction speed 9.2 X Track quality 100.0 % Test CRC FD27EE11 Copy CRC FD27EE11 Accurately ripped (confidence 8) [CE172061] (AR v2) Copy OK
Track 19
Filename Z:\#Torrents\Eigene\#EAC default\Henry Mancini - Ultimate Pink Panther (2004) [FLAC]\19 - Until You Love Me.wav
Pre-gap length 0:00:02.32
Peak level 95.2 % Extraction speed 9.0 X Track quality 100.0 % Test CRC C7104BE7 Copy CRC C7104BE7 Accurately ripped (confidence 8) [ABB19AA3] (AR v2) Copy OK
Track 20
Filename Z:\#Torrents\Eigene\#EAC default\Henry Mancini - Ultimate Pink Panther (2004) [FLAC]\20 - The Inspector Clouseau Theme.wav
Pre-gap length 0:00:02.50
Peak level 99.8 % Extraction speed 7.1 X Track quality 99.9 % Test CRC 9273C663 Copy CRC 9273C663 Accurately ripped (confidence 8) [6A9E8597] (AR v2) Copy OK
Track 21
Filename Z:\#Torrents\Eigene\#EAC default\Henry Mancini - Ultimate Pink Panther (2004) [FLAC]\21 - After The Shower.wav
Pre-gap length 0:00:03.62
Peak level 99.8 % Extraction speed 9.5 X Track quality 100.0 % Test CRC C5FF8751 Copy CRC C5FF8751 Accurately ripped (confidence 8) [3EECB731] (AR v2) Copy OK
Track 22
Filename Z:\#Torrents\Eigene\#EAC default\Henry Mancini - Ultimate Pink Panther (2004) [FLAC]\22 - Hong Kong Fireworks.wav
Pre-gap length 0:00:01.35
Peak level 99.8 % Extraction speed 9.5 X Track quality 100.0 % Test CRC 5BD69F99 Copy CRC 5BD69F99 Accurately ripped (confidence 8) [6A9009DD] (AR v2) Copy OK
Track 23
Filename Z:\#Torrents\Eigene\#EAC default\Henry Mancini - Ultimate Pink Panther (2004) [FLAC]\23 - Thank Heaven For Little Girls.wav
Pre-gap length 0:00:01.40
Peak level 99.8 % Extraction speed 9.3 X Track quality 100.0 % Test CRC C0F315DB Copy CRC C0F315DB Accurately ripped (confidence 8) [BF279F34] (AR v2) Copy OK
Track 24
Filename Z:\#Torrents\Eigene\#EAC default\Henry Mancini - Ultimate Pink Panther (2004) [FLAC]\24 - The Pink Panther Theme.wav
Pre-gap length 0:00:03.03
Peak level 99.8 % Extraction speed 9.7 X Track quality 100.0 % Test CRC 4D4FC931 Copy CRC 4D4FC931 Accurately ripped (confidence 8) [68030A1B] (AR v2) Copy OK
All tracks accurately ripped
No errors occurred
End of status report
---- CUETools DB Plugin V2.1.3
[CTDB TOCID: AU.xk8BTzAMM0ePowCvmHHAlbj4-] found, Submit result: AU.xk8BTzAMM0ePowCvmHHAlbj4- has been confirmed[24bf4644] (22/22) Accurately ripped
==== Log checksum 088A70B3B7FD427A0AB35C1338C3DC644393376BF5D23A9F34258D68862A1AA8 ====

Содержание индексной карты (.CUE)

REM GENRE SoundtrackREM DATE 2004REM DISCID 6E10BE18REM COMMENT "ExactAudioCopy v1.0b3"PERFORMER "Henry Mancini"TITLE "The Ultimate Pink Panther"FILE "01 - The Pink Panther Theme.wav" WAVE TRACK 01 AUDIO TITLE "The Pink Panther Theme" PERFORMER "Henry Mancini" INDEX 01 00:00:00 TRACK 02 AUDIO TITLE "Royal Blue" PERFORMER "Henry Mancini" INDEX 00 02:37:20FILE "02 - Royal Blue.wav" WAVE INDEX 01 00:00:00 TRACK 03 AUDIO TITLE "Champagne And Quail" PERFORMER "Henry Mancini" INDEX 00 03:11:30FILE "03 - Champagne And Quail.wav" WAVE INDEX 01 00:00:00 TRACK 04 AUDIO TITLE "The Village Inn" PERFORMER "Henry Mancini" INDEX 00 02:45:65FILE "04 - The Village Inn.wav" WAVE INDEX 01 00:00:00 TRACK 05 AUDIO TITLE "It Had Better Be Tonight" PERFORMER "Henry Mancini" INDEX 00 02:36:45FILE "05 - It Had Better Be Tonight.wav" WAVE INDEX 01 00:00:00 TRACK 06 AUDIO TITLE "Piano And Strings" PERFORMER "Henry Mancini" INDEX 00 01:58:00FILE "06 - Piano And Strings.wav" WAVE INDEX 01 00:00:00 TRACK 07 AUDIO TITLE "Shades Of Sennett" PERFORMER "Henry Mancini" INDEX 00 02:37:02FILE "07 - Shades Of Sennett.wav" WAVE INDEX 01 00:00:00 TRACK 08 AUDIO TITLE "A Shot In The Dark" PERFORMER "Henry Mancini" INDEX 00 01:25:73FILE "08 - A Shot In The Dark.wav" WAVE INDEX 01 00:00:00 TRACK 09 AUDIO TITLE "The Shadow Of Paris" PERFORMER "Henry Mancini" INDEX 00 02:29:52FILE "09 - The Shadow Of Paris.wav" WAVE INDEX 01 00:00:00 TRACK 10 AUDIO TITLE "Summer In Gstaad" PERFORMER "Henry Mancini" INDEX 00 02:55:52FILE "10 - Summer In Gstaad.wav" WAVE INDEX 01 00:00:00 TRACK 11 AUDIO TITLE "So Smooth" PERFORMER "Henry Mancini" INDEX 00 02:02:35FILE "11 - So Smooth.wav" WAVE INDEX 01 00:00:00 TRACK 12 AUDIO TITLE "The Greatest Gift" PERFORMER "Henry Mancini" INDEX 00 04:05:43FILE "12 - The Greatest Gift.wav" WAVE INDEX 01 00:00:00 TRACK 13 AUDIO TITLE "The Orange Float" PERFORMER "Henry Mancini" INDEX 00 03:19:15FILE "13 - The Orange Float.wav" WAVE INDEX 01 00:00:00 TRACK 14 AUDIO TITLE "Dreamy" PERFORMER "Henry Mancini" INDEX 00 03:09:50FILE "14 - Dreamy.wav" WAVE INDEX 01 00:00:00 TRACK 15 AUDIO TITLE "The Wet Look" PERFORMER "Henry Mancini" INDEX 00 03:22:00FILE "15 - The Wet Look.wav" WAVE INDEX 01 00:00:00 TRACK 16 AUDIO TITLE "Main Title From The Pink Panther Strikes Again" PERFORMER "Henry Mancini" INDEX 00 03:06:55FILE "16 - Main Title From The Pink Panther Strikes Again.wav" WAVE INDEX 01 00:00:00 TRACK 17 AUDIO TITLE "Bier Fest Polka" PERFORMER "Henry Mancini" INDEX 00 02:37:10FILE "17 - Bier Fest Polka.wav" WAVE INDEX 01 00:00:00 TRACK 18 AUDIO TITLE "Come To Me" PERFORMER "Tom Jones" INDEX 00 02:44:38FILE "18 - Come To Me.wav" WAVE INDEX 01 00:00:00 TRACK 19 AUDIO TITLE "Until You Love Me" PERFORMER "Henry Mancini" INDEX 00 04:36:38FILE "19 - Until You Love Me.wav" WAVE INDEX 01 00:00:00 TRACK 20 AUDIO TITLE "The Inspector Clouseau Theme" PERFORMER "Henry Mancini" INDEX 00 03:18:58FILE "20 - The Inspector Clouseau Theme.wav" WAVE INDEX 01 00:00:00 TRACK 21 AUDIO TITLE "After The Shower" PERFORMER "Henry Mancini" INDEX 00 02:58:30FILE "21 - After The Shower.wav" WAVE INDEX 01 00:00:00 TRACK 22 AUDIO TITLE "Hong Kong Fireworks" PERFORMER "Henry Mancini" INDEX 00 03:39:30FILE "22 - Hong Kong Fireworks.wav" WAVE INDEX 01 00:00:00 TRACK 23 AUDIO TITLE "Thank Heaven For Little Girls" PERFORMER "Inspector Clouseau And The Sыretй Brass Band" INDEX 00 03:19:70FILE "23 - Thank Heaven For Little Girls.wav" WAVE INDEX 01 00:00:00 TRACK 24 AUDIO TITLE "The Pink Panther Theme" PERFORMER "Bobby McFerrin" INDEX 00 02:33:15FILE "24 - The Pink Panther Theme.wav" WAVE INDEX 01 00:00:00


[torrentc.info]_t_5596474.torrent
Торрент: Зарегистрирован ·  [ 2018-08-09 20:14 ] ·  1f17c530ae2a6f567a425d155309a6299dfc298a

15 KB

Статус: проверено
Скачан: 0 раз
Размер: 656 MB
Оценка: 
(Голосов: 0)
Сказали спасибо: 0  Спасибо
Похожие темы
[Профиль]    [ЛС]
Показать сообщения:    
Ответить на тему

Текущее время: Сегодня 03:16

Часовой пояс: GMT + 7



Вы не можете начинать темы
Вы не можете отвечать на сообщения
Вы не можете редактировать свои сообщения
Вы не можете удалять свои сообщения
Вы не можете голосовать в опросах
Вы не можете прикреплять файлы к сообщениям
Вы можете скачивать файлы