(Score) Страховой агент, Роли со словами, Семейный просмотр / The Adjuster, Speaking Parts, Family Viewing / Music For The Films Of Atom Egoyan (by Mychael Danna) - 1996 (1991, 1989, 1988), FLAC (tracks+.cue), lossless

Ответить на тему
Статистика раздачи [Обновить пиров]
Размер:  295 MB   |    Зарегистрирован:  3 месяца 7 дней   |    Скачан:  0 раз

Полного источника не было: Никогда

 
   
 
 
 
Автор Сообщение

torrentc.info

Создавать темы 09-Авг-2018 20:15

[Цитировать]

Страховой агент, Роли со словами, Семейный просмотр / The Adjuster, Speaking Parts, Family Viewing
[img=right]https://i101.fastpic.ru/big/2018/0803/cc/e2509c8bce...d640cc.jpg[/img]
Жанр: Score
Композитор: Mychael Danna
Год выхода диска: 1996
Год выхода фильма: 1991, 1989, 1988
Производитель фильма: CA
Издатель (лейбл): Varèse Sarabande / Colosseum
Номер по каталогу: VSD-5674
Аудиокодек: FLAC
Тип рипа: tracks+.cue
Битрейт аудио: lossless
Продолжительность: 00:55:13
Источник: Спасибо, Filex
Наличие сканов в содержимом раздачи: да

Треклист:

The ADjuster: (1991)
01. Mychael Danna - Flashlight (3:39)
02. Mychael Danna - Dinner At Home (2:47)
03. Mychael Danna - Archery (3:01)
04. Mychael Danna - House Tour (3:35)
05. Mychael Danna - Fire (4:47)
Speaking Parts: (1989)
06. Mychael Danna - Speaking Parts (5:13)
07. Mychael Danna - Piano Concerto (Slow Movement) (3:03)
08. Mychael Danna - Clara's Story (2:28)
09. Mychael Danna - Talk Show (6:51)
10. Mychael Danna - Touch (3:27)
Family Viewing: (1987)
11. Mychael Danna - The Great White Bear (2:04)
12. Mychael Danna - Unmarked Grave (1:44)
13. Mychael Danna - A Natural Death (3:42)
14. Mychael Danna - Memories, These Things Possess You (2:32)
15. Mychael Danna - North Wing (3:40)
16. Mychael Danna - Family Reunion (3:28)
Conductor – Alex Pauk (tracks: 6 to 16)
Duduk – Djivan Gasparian* (tracks: 1 to 5)
Orchestra – Esprit Orchestra* (tracks: 6 to 16)
Piano – Eve Egoyan (tracks: 1 to 5)
Piano [Concerto Soloist] – Eve Egoyan (tracks: 6 to 16)
Violin – Mark Fewer (tracks: 1 to 5)

Лог создания рипа:

Exact Audio Copy V1.3 from 2. September 2016
EAC extraction logfile from 6. August 2018, 13:25
Mychael Danna / Music for the Films of Atom Egoyan
Used drive : PLEXTOR CD-R PX-230A Adapter: 1 ID: 0
Read mode : SecureUtilize accurate stream : YesDefeat audio cache : YesMake use of C2 pointers : No
Read offset correction : 738Overread into Lead-In and Lead-Out : NoFill up missing offset samples with silence : YesDelete leading and trailing silent blocks : NoNull samples used in CRC calculations : YesUsed interface : Native Win32 interface for Win NT & 2000Gap handling : Appended to previous track
Used output format : User Defined EncoderSelected bitrate : 1024 kBit/sQuality : HighAdd ID3 tag : NoCommand line compressor : C:\Program Files\Exact Audio Copy\Flac\flac.exeAdditional command line options : -6 -V -T "ARTIST=%artist%" -T "TITLE=%title%" -T "ALBUM=%albumtitle%" -T "DATE=%year%" -T "TRACKNUMBER=%tracknr%" -T "GENRE=%genre%" -T "COMMENT=%comment%" -T "ALBUMARTIST=%albuminterpret%" -T "COMPOSER=%composer%" -T "DISCNUMBER=%cdnumber%" -T "TOTALDISCS=%totalcds%" -T "TOTALTRACKS=%numtracks%" %source% -o %dest%
TOC of the extracted CD
Track | Start | Length | Start sector | End sector --------------------------------------------------------- 1 | 0:00.00 | 3:38.55 | 0 | 16404 2 | 3:38.55 | 2:47.05 | 16405 | 28934 3 | 6:25.60 | 3:01.22 | 28935 | 42531 4 | 9:27.07 | 3:35.08 | 42532 | 58664 5 | 13:02.15 | 4:47.15 | 58665 | 80204 6 | 17:49.30 | 5:12.55 | 80205 | 103659 7 | 23:02.10 | 3:03.22 | 103660 | 117406 8 | 26:05.32 | 2:28.22 | 117407 | 128528 9 | 28:33.54 | 6:51.11 | 128529 | 159364 10 | 35:24.65 | 3:27.35 | 159365 | 174924 11 | 38:52.25 | 2:03.50 | 174925 | 184199 12 | 40:56.00 | 1:43.55 | 184200 | 191979 13 | 42:39.55 | 3:41.50 | 191980 | 208604 14 | 46:21.30 | 2:32.35 | 208605 | 220039 15 | 48:53.65 | 3:39.52 | 220040 | 236516 16 | 52:33.42 | 3:28.10 | 236517 | 252126
Track 1
Filename C:\Ripped by Filex\01 - Flashlight (The Adjuster).wav
Pre-gap length 0:00:02.00
Peak level 75.1 % Extraction speed 4.8 X Track quality 100.0 % Test CRC 341D453D Copy CRC 341D453D Cannot be verified as accurate (confidence 3) [F98E8A4F], AccurateRip returned [20C4952C] (AR v2) Copy OK
Track 2
Filename C:\Ripped by Filex\02 - Dinner at Home (The Adjuster).wav
Pre-gap length 0:00:02.48
Peak level 70.2 % Extraction speed 5.0 X Track quality 100.0 % Test CRC 53F4A703 Copy CRC 53F4A703 Cannot be verified as accurate (confidence 3) [E4836324], AccurateRip returned [12B041AD] (AR v2) Copy OK
Track 3
Filename C:\Ripped by Filex\03 - Archery (The Adjuster).wav
Pre-gap length 0:00:02.58
Peak level 96.8 % Extraction speed 5.0 X Track quality 100.0 % Test CRC D871F52A Copy CRC D871F52A Cannot be verified as accurate (confidence 3) [873EFA8F], AccurateRip returned [665DA777] (AR v2) Copy OK
Track 4
Filename C:\Ripped by Filex\04 - House Tour (The Adjuster).wav
Pre-gap length 0:00:02.71
Peak level 85.5 % Extraction speed 4.6 X Track quality 99.9 % Test CRC ADBA1EC2 Copy CRC ADBA1EC2 Cannot be verified as accurate (confidence 3) [FC6AED25], AccurateRip returned [26F083D1] (AR v2) Copy OK
Track 5
Filename C:\Ripped by Filex\05 - Fire (The Adjuster).wav
Pre-gap length 0:00:02.65
Peak level 90.5 % Extraction speed 4.4 X Track quality 100.0 % Test CRC AEF3CE2A Copy CRC AEF3CE2A Cannot be verified as accurate (confidence 3) [56197D83], AccurateRip returned [8566420E] (AR v2) Copy OK
Track 6
Filename C:\Ripped by Filex\06 - Speaking Parts (Speaking Parts).wav
Pre-gap length 0:00:03.45
Peak level 88.9 % Extraction speed 5.0 X Track quality 99.9 % Test CRC CA8D7AEB Copy CRC CA8D7AEB Cannot be verified as accurate (confidence 3) [29A5D25E], AccurateRip returned [4F9A856B] (AR v2) Copy OK
Track 7
Filename C:\Ripped by Filex\07 - Piano Concerto (Speaking Parts).wav
Pre-gap length 0:00:02.39
Peak level 83.3 % Extraction speed 4.4 X Track quality 100.0 % Test CRC 91CF7F3C Copy CRC 91CF7F3C Cannot be verified as accurate (confidence 3) [6AABD2C9], AccurateRip returned [847451C4] (AR v2) Copy OK
Track 8
Filename C:\Ripped by Filex\08 - Clara's Story (Speaking Parts).wav
Pre-gap length 0:00:02.42
Peak level 85.7 % Extraction speed 4.8 X Track quality 100.0 % Test CRC 8E5123CD Copy CRC 8E5123CD Cannot be verified as accurate (confidence 3) [3E7C17D4], AccurateRip returned [70F02C15] (AR v2) Copy OK
Track 9
Filename C:\Ripped by Filex\09 - Talk Show (Speaking Parts).wav
Pre-gap length 0:00:02.52
Peak level 93.7 % Extraction speed 4.9 X Track quality 100.0 % Test CRC 23F5EB32 Copy CRC 23F5EB32 Cannot be verified as accurate (confidence 3) [DBE3774B], AccurateRip returned [EB456DF2] (AR v2) Copy OK
Track 10
Filename C:\Ripped by Filex\10 - Touch (Speaking Parts).wav
Pre-gap length 0:00:02.46
Peak level 89.7 % Extraction speed 4.4 X Track quality 99.9 % Test CRC 4716CE1A Copy CRC 4716CE1A Cannot be verified as accurate (confidence 3) [8D7439E9], AccurateRip returned [245D7338] (AR v2) Copy OK
Track 11
Filename C:\Ripped by Filex\11 - The Great White Bear (Family Viewing).wav
Pre-gap length 0:00:03.45
Peak level 85.4 % Extraction speed 4.7 X Track quality 100.0 % Test CRC 27192E3C Copy CRC 27192E3C Cannot be verified as accurate (confidence 3) [309C7BEE], AccurateRip returned [3B7A5B6C] (AR v2) Copy OK
Track 12
Filename C:\Ripped by Filex\12 - Unmarked Grave (Family Viewing).wav
Pre-gap length 0:00:02.43
Peak level 55.2 % Extraction speed 4.4 X Track quality 100.0 % Test CRC A50D5AE0 Copy CRC A50D5AE0 Cannot be verified as accurate (confidence 3) [D2D89CC0], AccurateRip returned [6011E108] (AR v2) Copy OK
Track 13
Filename C:\Ripped by Filex\13 - A Natural Death (Family Viewing).wav
Pre-gap length 0:00:02.39
Peak level 87.3 % Extraction speed 5.1 X Track quality 100.0 % Test CRC 25BBD0E4 Copy CRC 25BBD0E4 Cannot be verified as accurate (confidence 3) [0D8CAF0A], AccurateRip returned [D3A4B3BA] (AR v2) Copy OK
Track 14
Filename C:\Ripped by Filex\14 - Memories, These Things Possess You (Family Viewing).wav
Pre-gap length 0:00:02.56
Peak level 51.5 % Extraction speed 4.8 X Track quality 100.0 % Test CRC 697220E4 Copy CRC 697220E4 Cannot be verified as accurate (confidence 3) [37B6AAA8], AccurateRip returned [69591C3A] (AR v2) Copy OK
Track 15
Filename C:\Ripped by Filex\15 - North Wing (Family Viewing).wav
Pre-gap length 0:00:02.45
Peak level 96.3 % Extraction speed 5.1 X Track quality 100.0 % Test CRC 938CC907 Copy CRC 938CC907 Cannot be verified as accurate (confidence 3) [5D6050ED], AccurateRip returned [30066BEB] (AR v2) Copy OK
Track 16
Filename C:\Ripped by Filex\16 - Family Renuion (Family Viewing).wav
Pre-gap length 0:00:02.42
Peak level 84.2 % Extraction speed 4.9 X Track quality 100.0 % Test CRC 6DC986FF Copy CRC 6DC986FF Cannot be verified as accurate (confidence 3) [121A53BC], AccurateRip returned [E1258E82] (AR v2) Copy OK
No tracks could be verified as accurateYou may have a different pressing from the one(s) in the database
No errors occurred
End of status report
---- CUETools DB Plugin V2.1.6
[CTDB TOCID: 4lnhkwjNsrsvu0PEoVODtQL8tzA-] foundSubmit result: 4lnhkwjNsrsvu0PEoVODtQL8tzA- has been confirmedTrack | CTDB Status 1 | (7/7) Accurately ripped 2 | (7/7) Accurately ripped 3 | (7/7) Accurately ripped 4 | (7/7) Accurately ripped 5 | (7/7) Accurately ripped 6 | (7/7) Accurately ripped 7 | (7/7) Accurately ripped 8 | (7/7) Accurately ripped 9 | (7/7) Accurately ripped 10 | (7/7) Accurately ripped 11 | (7/7) Accurately ripped 12 | (7/7) Accurately ripped 13 | (7/7) Accurately ripped 14 | (7/7) Accurately ripped 15 | (7/7) Accurately ripped 16 | (7/7) Accurately ripped
==== Log checksum 0527D8D72AFF6A92AFA8C55A7995B7727BEA52C798AC13BF1AE266B1B1546C3F ====

LOG (.CUE):

REM GENRE SoundtrackREM DATE 1996REM DISCID E60D2110REM COMMENT "ExactAudioCopy v1.3"PERFORMER "Mychael Danna"TITLE "Music for the Films of Atom Egoyan"REM COMPOSER "Mychael Danna"FILE "01 - Flashlight (The Adjuster).wav" WAVE TRACK 01 AUDIO TITLE "Flashlight (The Adjuster)" PERFORMER "Mychael Danna" REM COMPOSER "Mychael Danna" INDEX 01 00:00:00 TRACK 02 AUDIO TITLE "Dinner at Home (The Adjuster)" PERFORMER "Mychael Danna" REM COMPOSER "Mychael Danna" INDEX 00 03:36:07FILE "02 - Dinner at Home (The Adjuster).wav" WAVE INDEX 01 00:00:00 TRACK 03 AUDIO TITLE "Archery (The Adjuster)" PERFORMER "Mychael Danna" REM COMPOSER "Mychael Danna" INDEX 00 02:44:22FILE "03 - Archery (The Adjuster).wav" WAVE INDEX 01 00:00:00 TRACK 04 AUDIO TITLE "House Tour (The Adjuster)" PERFORMER "Mychael Danna" REM COMPOSER "Mychael Danna" INDEX 00 02:58:26FILE "04 - House Tour (The Adjuster).wav" WAVE INDEX 01 00:00:00 TRACK 05 AUDIO TITLE "Fire (The Adjuster)" PERFORMER "Mychael Danna" REM COMPOSER "Mychael Danna" INDEX 00 03:32:18FILE "05 - Fire (The Adjuster).wav" WAVE INDEX 01 00:00:00 TRACK 06 AUDIO TITLE "Speaking Parts (Speaking Parts)" PERFORMER "Mychael Danna" REM COMPOSER "Mychael Danna" INDEX 00 04:43:45FILE "06 - Speaking Parts (Speaking Parts).wav" WAVE INDEX 01 00:00:00 TRACK 07 AUDIO TITLE "Piano Concerto (Speaking Parts)" PERFORMER "Mychael Danna" REM COMPOSER "Mychael Danna" INDEX 00 05:10:16FILE "07 - Piano Concerto (Speaking Parts).wav" WAVE INDEX 01 00:00:00 TRACK 08 AUDIO TITLE "Clara's Story (Speaking Parts)" PERFORMER "Mychael Danna" REM COMPOSER "Mychael Danna" INDEX 00 03:00:55FILE "08 - Clara's Story (Speaking Parts).wav" WAVE INDEX 01 00:00:00 TRACK 09 AUDIO TITLE "Talk Show (Speaking Parts)" PERFORMER "Mychael Danna" REM COMPOSER "Mychael Danna" INDEX 00 02:25:45FILE "09 - Talk Show (Speaking Parts).wav" WAVE INDEX 01 00:00:00 TRACK 10 AUDIO TITLE "Touch (Speaking Parts)" PERFORMER "Mychael Danna" REM COMPOSER "Mychael Danna" INDEX 00 06:48:40FILE "10 - Touch (Speaking Parts).wav" WAVE INDEX 01 00:00:00 TRACK 11 AUDIO TITLE "The Great White Bear (Family Viewing)" PERFORMER "Mychael Danna" REM COMPOSER "Mychael Danna" INDEX 00 03:23:65FILE "11 - The Great White Bear (Family Viewing).wav" WAVE INDEX 01 00:00:00 TRACK 12 AUDIO TITLE "Unmarked Grave (Family Viewing)" PERFORMER "Mychael Danna" REM COMPOSER "Mychael Danna" INDEX 00 02:01:07FILE "12 - Unmarked Grave (Family Viewing).wav" WAVE INDEX 01 00:00:00 TRACK 13 AUDIO TITLE "A Natural Death (Family Viewing)" PERFORMER "Mychael Danna" REM COMPOSER "Mychael Danna" INDEX 00 01:41:16FILE "13 - A Natural Death (Family Viewing).wav" WAVE INDEX 01 00:00:00 TRACK 14 AUDIO TITLE "Memories, These Things Possess You (Family Viewing)" PERFORMER "Mychael Danna" REM COMPOSER "Mychael Danna" INDEX 00 03:38:69FILE "14 - Memories, These Things Possess You (Family Viewing).wav" WAVE INDEX 01 00:00:00 TRACK 15 AUDIO TITLE "North Wing (Family Viewing)" PERFORMER "Mychael Danna" REM COMPOSER "Mychael Danna" INDEX 00 02:29:65FILE "15 - North Wing (Family Viewing).wav" WAVE INDEX 01 00:00:00 TRACK 16 AUDIO TITLE "Family Renuion (Family Viewing)" PERFORMER "Mychael Danna" REM COMPOSER "Mychael Danna" INDEX 00 03:37:10FILE "16 - Family Renuion (Family Viewing).wav" WAVE INDEX 01 00:00:00
- - RG Soundtracks-Внимание! Торрент-файл перезалит 06.08.2018, WEB релиз заменен на рип с CD. Просьба перекачать торрент-файл заново.


[torrentc.info]_t_5595697.torrent
Торрент: Зарегистрирован ·  [ 2018-08-09 20:14 ] ·  47fd323d2f31dbbfae4786152bc2d4866f92b5e8

14 KB

Статус: проверено
Скачан: 0 раз
Размер: 295 MB
Оценка: 
(Голосов: 0)
Сказали спасибо: 0  Спасибо
Похожие темы
[Профиль]    [ЛС]
Показать сообщения:    
Ответить на тему

Текущее время: Сегодня 05:25

Часовой пояс: GMT + 7



Вы не можете начинать темы
Вы не можете отвечать на сообщения
Вы не можете редактировать свои сообщения
Вы не можете удалять свои сообщения
Вы не можете голосовать в опросах
Вы не можете прикреплять файлы к сообщениям
Вы можете скачивать файлы