[TR24][OF][GM] Floex (Tomas Dvorak) - Samorost 3 Pre - Remixes (EP) - 2015 (Score, IDM)

Ответить на тему
Статистика раздачи [Обновить пиров]
Размер:  345 MB   |    Зарегистрирован:  1 месяц 9 дней   |    Скачан:  0 раз

Полного источника не было: Никогда

 
   
 
 
 
Автор Сообщение

torrentc.info

Создавать темы 09-Авг-2018 20:14

[Цитировать]

Floex (Tomas Dvorak) -- Samorost 3 Pre - Remixes-Формат файла записи/Источник записи: [TR24][OF]
Наличие водяных знаков: Нет
Издание: EP \\\ Floex (Tomas Dvorak) - Samorost 3
Год издания/переиздания диска: 2015
Жанр: IDM
Издатель (лейбл): Not On Label (Floex Self-released) ‎– none
Продолжительность: 00:34:09
Наличие сканов в содержимом раздачи: Только обложка альбома-Треклист:
1. Prenatal Hunters (Floex Revision) (05:37)
2. Lianas (Olaf Stuut Remix) (10:28)
3. Prenatal Hunters (Julien Mier Remix) (05:13)
4. On the Roof of the Yellow Psychedelic Mushroom (Zka4t Remix) (05:25)
5. Volcanic Vent Planet Main Theme (Original Version) (02:51)
6. Sub-Totemic Arci Code (Tom Hodge Remix) (04:35)
Формат файла: FLAC (*.flac)
Тип рипа: tracks
Разрядность: 24/44,1
Формат файла: PCM
Количество каналов: 2.0-Источник (релизер): store.floex.cz - (Bandcamp-ex)

Лог проверки качества

foobar2000 1.3.16 / Замер динамического диапазона (DR) 1.1.1Дата отчёта: 2018-08-02 03:15:31
--------------------------------------------------------------------------------Анализ: Floex / Samorost3 Pre-Remixes EP--------------------------------------------------------------------------------
DR Пики RMS Продолжительность трека--------------------------------------------------------------------------------DR7 -0.01 дБ -10.60 дБ 5:37 01-Prenatal Hunters (Floex Revision)DR7 -0.01 дБ -9.41 дБ 10:28 02-Lianas (Olaf Stuut Remix)DR7 -0.01 дБ -11.78 дБ 5:13 03-Prenatal Hunters (Julien Mier Remix)DR9 -0.01 дБ -12.58 дБ 5:25 04-On the Roof of the Yellow Psychedelic Mushroom (Zka4t Remix)DR7 -0.01 дБ -9.20 дБ 2:51 05-Volcanic Vent Planet Main Theme (Original Version)DR8 -0.01 дБ -12.25 дБ 4:35 06-Sub-Totemic Arci Code (Tom Hodge Remix)--------------------------------------------------------------------------------
Количество треков: 6Реальные значения DR: DR7
Частота: 44100 ГцКаналов: 2Разрядность: 24Битрейт: 1288 кбит/сКодек: FLAC================================================================================

Скриншот спектра частот



[torrentc.info]_t_5595016.torrent
Торрент: Зарегистрирован ·  [ 2018-08-09 20:14 ] ·  c8765c6a9c80e3dc20dda541e1e18b35a34a3935

14 KB

Статус: проверено
Скачан: 0 раз
Размер: 345 MB
Оценка: 
(Голосов: 0)
Сказали спасибо: 0  Спасибо
Похожие темы
[Профиль]    [ЛС]
Показать сообщения:    
Ответить на тему

Текущее время: Сегодня 14:09

Часовой пояс: GMT + 7



Вы не можете начинать темы
Вы не можете отвечать на сообщения
Вы не можете редактировать свои сообщения
Вы не можете удалять свои сообщения
Вы не можете голосовать в опросах
Вы не можете прикреплять файлы к сообщениям
Вы можете скачивать файлы