[TR24][OF][FM] Кристофер Робин / Christopher Robin (Original Motion Picture Soundtrack) (by Jon Brion & Geoff Zanelli) - 2018 (Score)

Ответить на тему
Статистика раздачи [Обновить пиров]
Размер:  581 MB   |    Зарегистрирован:  3 месяца 7 дней   |    Скачан:  0 раз

Полного источника не было: Никогда

 
   
 
 
 
Автор Сообщение

torrentc.info

Создавать темы 09-Авг-2018 20:14

[Цитировать]

Jon Brion & Geoff Zanelli - Christopher Robin
[img=right]https://i101.fastpic.ru/big/2018/0807/5e/0ecc71e2f3...fc075e.jpg[/img]
Формат файла записи/Источник записи: [TR24][OF][FM]
Наличие водяных знаков: Нет
Год издания: 2018
Жанр: Score
Издатель (лейбл): Walt Disney Records
Продолжительность: 00:56:49
Наличие сканов в содержимом раздачи: Только обложка альбома
Формат файла: FLAC (*.flac)
Тип рипа: tracks
Разрядность: 24/48
Формат файла: PCM
Количество каналов: 2.0
Источник (релизер): qobuz.com

Треклист:

01. Storybook
02. Goodbye, Farewell
03. Not Doing Nothing Anymore
04. I Would Have Liked It to Go on For a While Longer
05. Chapters
06. Evelyn Goes It Alone
07. Easy to Lose Your Way on a Foggy Day
08. Through the Tree
09. It's Not Stress, It's Pooh
10. Train Station
11. Sussex
12. Returning to the Hundred Acre Wood
13. Did You Let Me Go?
14. Swimmer or Sinker
15. Heffalump Battle
16. Is It Christopher Robin?
17. But I Found You, Didn't I?
18. Madeline's Red Balloon
19. Expotition to London
20. Nothing Ever Bad Came from Bouncing
21. A Father of Very Little Brain
22. My Favorite Day
23. I Do Nothing Every Day
24. Busy Doing Nothing
25. Christopher Robin

Лог проверки качества

foobar2000 1.4 / Dynamic Range Meter 1.1.1log date: 2018-08-07 18:19:24
--------------------------------------------------------------------------------Analyzed: Geoff Zanelli & Jon Brion / Christopher Robin (Original Motion Picture Soundtrack) (1-22) Jim Cummings, Brad Garrett, Toby Jones, Peter Capaldi, Sophie Okonedo, Nick Mohammed & Sara Sheen / Christopher Robin (Original Motion Picture Soundtrack) (23) Richard M Sherman / Christopher Robin (Original Motion Picture Soundtrack) (24-25)--------------------------------------------------------------------------------
DR Peak RMS Duration Track--------------------------------------------------------------------------------DR11 -2.96 dB -17.67 dB 1:23 01-StorybookDR11 -3.33 dB -20.33 dB 2:50 03-Not Doing Nothing AnymoreDR12 -0.70 dB -18.37 dB 2:04 04-I Would Have Liked It to Go on For a While LongerDR11 -1.24 dB -17.28 dB 3:00 05-ChaptersDR11 -5.17 dB -21.24 dB 2:34 06-Evelyn Goes It AloneDR13 -1.04 dB -21.64 dB 2:40 07-Easy to Lose Your Way on a Foggy DayDR11 -4.70 dB -20.51 dB 1:26 08-Through the TreeDR12 -0.82 dB -22.41 dB 1:29 09-It's Not Stress, It's PoohDR11 -0.70 dB -15.26 dB 2:28 10-Train StationDR11 -4.98 dB -20.54 dB 1:13 11-SussexDR13 -5.30 dB -22.96 dB 4:27 12-Returning to the Hundred Acre WoodDR12 -0.70 dB -21.02 dB 3:37 13-Did You Let Me GoDR14 -0.71 dB -23.08 dB 2:11 14-Swimmer or SinkerDR11 -0.70 dB -15.07 dB 1:31 15-Heffalump BattleDR11 -0.70 dB -17.09 dB 1:54 16-Is It Christopher RobinDR10 -10.50 dB -27.01 dB 2:35 17-But I Found You, Didn't IDR10 -1.81 dB -17.17 dB 0:55 18-Madeline's Red BalloonDR13 -0.70 dB -18.01 dB 4:14 19-Expotition to LondonDR12 -0.70 dB -16.70 dB 1:41 20-Nothing Ever Bad Came from BouncingDR12 -0.70 dB -18.02 dB 3:34 21-A Father of Very Little BrainDR11 -0.70 dB -17.13 dB 2:43 22-My Favorite DayDR12 -1.86 dB -18.58 dB 2:57 23-I Do Nothing Every DayDR10 -2.68 dB -14.74 dB 1:20 02-Goodbye, FarewellDR12 -2.30 dB -16.13 dB 0:46 24-Busy Doing NothingDR11 -0.50 dB -15.09 dB 1:18 25-Christopher Robin--------------------------------------------------------------------------------
Number of tracks: 25Official DR value: DR11
Samplerate: 48000 HzChannels: 2Bits per sample: 24Bitrate: 1504 kbpsCodec: FLAC================================================================================

Об альбоме (сборнике)

Christopher Robin is a 2018 American adventure comedy-drama film, based on A. A. Milne’s book Winnie-the-Pooh and is a live-action adaptation of the Disney franchise of the same name. The film written by Tom McCarthy, Alex Ross Perry, and Allison Schroeder, directed by Marc Forster, stars Ewan McGregor and Hayley Atwell


[torrentc.info]_t_5597641.torrent
Торрент: Зарегистрирован ·  [ 2018-08-09 20:14 ] ·  334b5897946aa568e0222041536c2b22a49f8c67

14 KB

Статус: проверено
Скачан: 0 раз
Размер: 581 MB
Оценка: 
(Голосов: 0)
Сказали спасибо: 0  Спасибо
Похожие темы
[Профиль]    [ЛС]
Показать сообщения:    
Ответить на тему

Текущее время: Сегодня 21:12

Часовой пояс: GMT + 7



Вы не можете начинать темы
Вы не можете отвечать на сообщения
Вы не можете редактировать свои сообщения
Вы не можете удалять свои сообщения
Вы не можете голосовать в опросах
Вы не можете прикреплять файлы к сообщениям
Вы можете скачивать файлы