Закат в Запретном городе / Sunset in the Forbidden City / Ri luo zi jin cheng (Линь Пай / Lin Pai) [1976, Тайвань, боевые искусства, DVDRip] VO (Chesterfield)

Ответить на тему
Статистика раздачи [Обновить пиров]
Размер:  1.38 GB   |    Зарегистрирован:  2 месяца 16 дней   |    Скачан:  0 раз

Полного источника не было: Никогда

 
   
 
 
 
Автор Сообщение

torrentc.info

Создавать темы 07-Авг-2018 22:45

[Цитировать]

Закат в Запретном городе / Sunset in the Forbidden City / Ri luo zi jin cheng
Страна: Тайвань
Жанр: боевые искусства
Год выхода: 1976
Продолжительность: 01:28:06
Перевод: Одноголосый закадровый Chesterfield
Субтитры: нет
Режиссер: Линь Пай / Lin Pai
В ролях: Дориан Тань, Чиа Лин, Ма Кэй, Чан Вай-Лау, Лун Фэй, Ли Ин, Ши Тинкэнь, Вонг Юк-Пин, Клифф Чин
Описание: Талантливый парень по имени Пай Му Тин приезжает в город чтобы устроиться телохранителем у местного главы господина Вонга. У Вонга есть причины беспокоиться за свою жизнь - большая часть жителей города относится к нему крайне негативно, такое отношение начинает распространяться и на Му Тина, пока тот внезапно не переходит на, казалось бы, сторону врагов...
Сэмпл: https://yadi.sk/i/LNzYtc6y3Zvq9S
Качество видео: DVDRip (Источник: Torrentc DVD-Video)
Формат файла: AVI
Видео: XviD 73, 640x384, (5:3), 25,000 fps, 2033 Кбит/с, 8 бит
Аудио: Русский (АС3, 2 ch (Front: L R), 48,0 KHz, 192 Kbps

MediaInfo

ОбщееПолное имя : H:\Фильмы на трекер\Закат в Запретном городе (боевые искусства 1976 год).aviФормат файла : AVIФормат файла/Информация : Audio Video InterleaveРазмер файла : 1,38 ГбайтПродолжительность : 1 ч. 28 м.Общий поток : 2234 Кбит/секПрограмма кодирования : VirtualDubMod 1.5.10.3 | www.virtualdub-fr.org || (build 2550/release)Библиотека кодирования : VirtualDubMod build 2550/release
ВидеоИдентификатор : 0Формат файла : MPEG-4 VisualПрофиль формата : Advanced Simple@L5Параметр BVOP формата : 2Параметр QPel формата : НетПараметр GMC формата : Без точки переходаПараметр матрицы формата : ВыборочнаяИдентификатор кодека : XVIDИдентификатор кодека/Подсказка : XviDПродолжительность : 1 ч. 28 м.Битрейт : 2033 Кбит/секШирина : 640 пикселейВысота : 384 пикселяСоотношение сторон : 5:3Частота кадров : 25,000 кадров/секЦветовое пространство : YUVСубдискретизация насыщенности : 4:2:0Битовая глубина : 8 битТип развёртки : ПрогрессивнаяМетод сжатия : С потерямиБит/(Пиксели*Кадры) : 0.331Размер потока : 1,25 Гбайт (91%)Библиотека кодирования : XviD 73
АудиоИдентификатор : 1Формат файла : AC-3Формат файла/Информация : Audio Coding 3Расширение режима : CM (complete main)Параметр Endianness формата : BigИдентификатор кодека : 2000Продолжительность : 1 ч. 28 м.Вид битрейта : ПостоянныйБитрейт : 192 Кбит/секКаналы : 2 каналаРасположение каналов : Front: L RЧастота : 48,0 КГцЧастота кадров : 31,250 кадров/сек (1536 spf)Метод сжатия : С потерямиРазмер потока : 121 Мбайт (9%)Выравнивание : Разделение по промежуткамПродолжительность промежутка : 40 мс. (1,00 видеокадр)Время предзагрузки промежутка : 500 мс.

Скриншот c названием фильма

Скриншоты

Источник: Torrentchttp://Torrentc/forum/viewtopic.php?t=5586221


[torrentc.info]_t_5597087.torrent
Торрент: Зарегистрирован ·  [ 2018-08-07 22:45 ] ·  7f27bba81adcf4be7857424321c3d25a77a92874

14 KB

Статус: проверено
Скачан: 0 раз
Размер: 1.38 GB
Оценка: 
(Голосов: 0)
Сказали спасибо: 0  Спасибо
Похожие темы
[Профиль]    [ЛС]
Показать сообщения:    
Ответить на тему

Текущее время: Сегодня 12:44

Часовой пояс: GMT + 7



Вы не можете начинать темы
Вы не можете отвечать на сообщения
Вы не можете редактировать свои сообщения
Вы не можете удалять свои сообщения
Вы не можете голосовать в опросах
Вы не можете прикреплять файлы к сообщениям
Вы можете скачивать файлы