Вернуть сокровище / Return of the Valuables / Fei che long hu dou (Су Тачунь / Hsu Ta-Chun) [1975, Тайвань, боевые искусства, DVDRip] VO (Chesterfield)

Ответить на тему
Статистика раздачи [Обновить пиров]
Размер:  744 MB   |    Зарегистрирован:  2 месяца 14 дней   |    Скачан:  0 раз

Полного источника не было: Никогда

 
   
 
 
 
Автор Сообщение

torrentc.info

Создавать темы 05-Авг-2018 21:54

[Цитировать]

Вернуть сокровище / Return of the Valuables / Fei che long hu dou
Страна: Тайвань
Жанр: боевые искусства
Год выхода: 1975
Продолжительность: 01:02:09
Перевод: Одноголосый закадровый Chesterfield
Субтитры: нет
Режиссер: Су Тачунь / Hsu Ta-Chun
В ролях: Чэнь Тао, Джоан Линь, Гэри Лист, Лам Чи, Ли Сеунг, Мяо Тянь, Лань Юнь, Гам Кин, Чень Чиу
Описание: Сюжет закручен вокруг сундука с сокровищами, в котором находится украденная диадема. Изначально она была украдена бандой из одного ночного клуба, возглавляемого фавориткой главаря, Мьяо Тиан, однако затем диадему перехватила другая банда, возглавляемая персонажем актера Гэри Листа. Члены банды леди Тиан настаивают на том, что диадему ни за что бы не украли, если бы не тот факт, что тормоза на их машине отказали, и так уж случилось, что брат автомеханика, который в последнее время чинил авто - тренер кунг-фу с "обострённым" чувством справедливости. Как же бандам вернуть диадему? Похитить автослесаря, обвинив его в нерабочих тормозах, а затем шантажировать его брата, чтобы заставить того помочь им справиться с конкурентами..
Сэмпл: http://multi-up.com/1205512
Качество видео: DVDRip (Источник: Torrentc DVD-Video)
Формат файла: AVI
Видео: XviD 73, 640x320, (2,00:1), 25,000 fps, 1471 Кбит/с, 8 бит
Аудио: Русский (АС3, 2 ch (Front: L R), 48,0 KHz, 192 Kbps

MediaInfo

ОбщееПолное имя : H:\Фильмы на трекер\Вернуть сокровище (боевые искусства 1975 год).aviФормат файла : AVIФормат файла/Информация : Audio Video InterleaveРазмер файла : 744 МбайтПродолжительность : 1 ч. 2 м.Общий поток : 1673 Кбит/секПрограмма кодирования : VirtualDubMod 1.5.10.3 | www.virtualdub-fr.org || (build 2550/release)Библиотека кодирования : VirtualDubMod build 2550/release
ВидеоИдентификатор : 0Формат файла : MPEG-4 VisualПрофиль формата : Advanced Simple@L5Параметр BVOP формата : 2Параметр QPel формата : НетПараметр GMC формата : Без точки переходаПараметр матрицы формата : ВыборочнаяИдентификатор кодека : XVIDИдентификатор кодека/Подсказка : XviDПродолжительность : 1 ч. 2 м.Битрейт : 1471 Кбит/секШирина : 640 пикселейВысота : 320 пикселейСоотношение сторон : 2,000Частота кадров : 25,000 кадров/секЦветовое пространство : YUVСубдискретизация насыщенности : 4:2:0Битовая глубина : 8 битТип развёртки : ПрогрессивнаяМетод сжатия : С потерямиБит/(Пиксели*Кадры) : 0.287Размер потока : 654 Мбайт (88%)Библиотека кодирования : XviD 73
АудиоИдентификатор : 1Формат файла : AC-3Формат файла/Информация : Audio Coding 3Расширение режима : CM (complete main)Параметр Endianness формата : BigИдентификатор кодека : 2000Продолжительность : 1 ч. 2 м.Вид битрейта : ПостоянныйБитрейт : 192 Кбит/секКаналы : 2 каналаРасположение каналов : Front: L RЧастота : 48,0 КГцЧастота кадров : 31,250 кадров/сек (1536 spf)Метод сжатия : С потерямиРазмер потока : 85,4 Мбайт (11%)Выравнивание : Разделение по промежуткамПродолжительность промежутка : 40 мс. (1,00 видеокадр)Время предзагрузки промежутка : 500 мс.

Скриншот c названием фильма

Скриншоты



[torrentc.info]_t_5596795.torrent
Торрент: Зарегистрирован ·  [ 2018-08-05 21:52 ] ·  c2b31ffbc253dc480198476b804483d57ba84f00

15 KB

Статус: проверено
Скачан: 0 раз
Размер: 744 MB
Оценка: 
(Голосов: 0)
Сказали спасибо: 0  Спасибо
Похожие темы
[Профиль]    [ЛС]
Показать сообщения:    
Ответить на тему

Текущее время: Сегодня 13:52

Часовой пояс: GMT + 7



Вы не можете начинать темы
Вы не можете отвечать на сообщения
Вы не можете редактировать свои сообщения
Вы не можете удалять свои сообщения
Вы не можете голосовать в опросах
Вы не можете прикреплять файлы к сообщениям
Вы можете скачивать файлы