Экспресс в темный день / Dark Day Express (Льюис Пикок / Lewis Peacock) [1989, Таиланд, Гонконг, боевик, приключения, VHSRip] VO (Ghostface)

Ответить на тему
Статистика раздачи [Обновить пиров]
Размер:  1.37 GB   |    Зарегистрирован:  3 месяца 13 дней   |    Скачан:  0 раз

Полного источника не было: Никогда

 
   
 
 
 
Автор Сообщение

torrentc.info

Создавать темы 02-Авг-2018 23:57

[Цитировать]

Экспресс в темный день / Dark Day Express
Страна: Таиланд, Гонконг
Жанр: боевик, приключения
Год выхода: 1989
Продолжительность: 01:28:47
Перевод: Одноголосый закадровый Ghostface
Субтитры: нет
Режиссер: Льюис Пикок / Lewis Peacock
В ролях: Панна Риттикраи, Кристоф Клуппел, Дениз Скарлетт, Франциз Хаберт, Жене Фвбиас, Кристиан Диаз, Барри Уткан, Нга Ким, Филипп Мэнг
Описание: Один известный учёный собирает группу ветеранов Вьетнамской войны для того, чтобы они помогли ему вернуть ценную реликвию, утраченную им 20 лет назад. Ослеплённые деньгами, которые им предложили, друзья-сослуживцы соглашаются помочь. Они ещё не знают, что их ждёт после того, как они отправятся в джунгли.
Сэмпл: http://multi-up.com/1205225
Качество видео: VHSRip (Источник: Torrentc - DVD Video)
Формат файла: AVI
Видео: XviD, 640x480, (4:3), 25,000 fps, 2013 Кбит/с, 8 бит
Аудио: Русский (АС3, 2 ch (Front: L R), 48,0 KHz, 192 Kbps

MediaInfo

ОбщееПолное имя : H:\Фильмы на трекер\Экспресс в темный день (боевик, приключения 1989 год).aviФормат файла : AVIФормат файла/Информация : Audio Video InterleaveРазмер файла : 1,37 ГбайтПродолжительность : 1 ч. 28 м.Общий поток : 2215 Кбит/секПрограмма кодирования : VirtualDubMod 1.5.10.3 | www.virtualdub-fr.org || (build 2550/release)Библиотека кодирования : VirtualDubMod build 2550/release
ВидеоИдентификатор : 0Формат файла : MPEG-4 VisualПрофиль формата : Advanced Simple@L5Параметр BVOP формата : 2Параметр QPel формата : НетПараметр GMC формата : Без точки переходаПараметр матрицы формата : ВыборочнаяИдентификатор кодека : XVIDИдентификатор кодека/Подсказка : XviDПродолжительность : 1 ч. 28 м.Битрейт : 2013 Кбит/секШирина : 640 пикселейВысота : 480 пикселейСоотношение сторон : 4:3Частота кадров : 25,000 кадров/секЦветовое пространство : YUVСубдискретизация насыщенности : 4:2:0Битовая глубина : 8 битТип развёртки : ПрогрессивнаяМетод сжатия : С потерямиБит/(Пиксели*Кадры) : 0.262Размер потока : 1,25 Гбайт (91%)Библиотека кодирования : XviD 73
АудиоИдентификатор : 1Формат файла : AC-3Формат файла/Информация : Audio Coding 3Расширение режима : CM (complete main)Параметр Endianness формата : BigИдентификатор кодека : 2000Продолжительность : 1 ч. 28 м.Вид битрейта : ПостоянныйБитрейт : 192 Кбит/секКаналы : 2 каналаРасположение каналов : Front: L RЧастота : 48,0 КГцЧастота кадров : 31,250 кадров/сек (1536 spf)Метод сжатия : С потерямиРазмер потока : 122 Мбайт (9%)Выравнивание : Разделение по промежуткамПродолжительность промежутка : 40 мс. (1,00 видеокадр)Время предзагрузки промежутка : 500 мс.

Скриншот c названием фильма

Скриншоты



[torrentc.info]_t_5595352.torrent
Торрент: Зарегистрирован ·  [ 2018-08-02 23:57 ] ·  f2e90fc4b0713f3314e841708fa0bfa684978cd7

14 KB

Статус: проверено
Скачан: 0 раз
Размер: 1.37 GB
Оценка: 
(Голосов: 0)
Сказали спасибо: 0  Спасибо
Похожие темы
[Профиль]    [ЛС]
Показать сообщения:    
Ответить на тему

Текущее время: Сегодня 12:32

Часовой пояс: GMT + 7



Вы не можете начинать темы
Вы не можете отвечать на сообщения
Вы не можете редактировать свои сообщения
Вы не можете удалять свои сообщения
Вы не можете голосовать в опросах
Вы не можете прикреплять файлы к сообщениям
Вы можете скачивать файлы