Одержимость / Наваждение / Уикер Парк / Wicker Park (Пол МакГиган / Paul McGuigan) [2004, США, мелодрама, детектив, WEB-DLRip] Dub + DVO (Tycoon) + DVO + Sub Rus, Eng + Original Eng

Ответить на тему
Статистика раздачи [Обновить пиров]
Размер:  2.7 GB   |    Зарегистрирован:  2 месяца 21 день   |    Скачан:  0 раз
Сидеров:  1  [  0 KB/s  ]   Подробная статистика скачивающих
 
   
 
 
 
Автор Сообщение

torrentc.info

Создавать темы 01-Авг-2018 23:03

[Цитировать]

Одержимость / Наваждение / Уикер Парк / Wicker Park
Страна: США
Жанр: мелодрама, детектив
Год выхода: 2004
Продолжительность: 01:54:55
Перевод: Профессиональный (дублированный)
Перевод: Профессиональный (двухголосый закадровый) - Tycoon
Перевод: Профессиональный (двухголосый закадровый) - Ольга Зверева и Александр Котов
Субтитры: русские, английские
Оригинальная аудиодорожка: английский

Режиссер: Пол МакГиган / Paul McGuigan
В ролях: Джош Хартнетт, Роуз Бирн, Дайан Крюгер, Мэттью Лиллард, Кристофер Казинс, Джессика Паре, Власта Врана, Эми Собол, Тед Уиттэлл, Изабель Дос Сантос, Джоэнна Нойес, Керрилин Кейт, Марк Камачо, Марсель Жаннин, Стефани Бакстон, Стэнли Хилейр, Женху Хань, Кристиан Пол, Джиллиан Ферраби, Фрэнк Фонтейн, Миранда Хэндфорд, Бенжамин Хэтчер, Ричард Жютра, Келли Энн Паттерсон, Мэри Мортер, Джессика Шульте, Пол Дусе, Джемисон Буланжер, Кэрри Колак, Гордон Мастен
Описание: Накануне важной деловой поездки молодой преуспевающий финансист Мэтью замечает в ресторане свою бывшую возлюбленную Лизу, которая таинственным образом исчезла два года назад и страстью к которой он все еще одержим. Забыв обо всем, Мэтью ступает на путь обмана и подозрений, чтобы выследить ее.
Пытаясь решить головоломку с помощью загадочных улик, он случайно знакомится с другой девушкой - ее тоже зовут Лиза и, возможно, ей известна тайна странного исчезновения. Мэтью не предполагает, что любовная одержимость уже сделала его жертвой виртуозной интриги, в которой каждая деталь была предусмотрена с дьявольской точностью...

Сэмпл
Качество видео: WEB-DLRip
Формат файла: AVI
Видео: 720x304 (2.37:1), 23.976 fps, XviD build 73 ~2133 kbps avg, 0.41 bit/pixel
Аудио: 48 kHz, AC3 Dolby Digital, 3/2 (L,C,R,l,r) + LFE ch, ~384 kbps - дубляж
Аудио: 48 kHz, AC3 Dolby Digital, 2/0 (L,R) ch, ~192 kbps - Tycoon
отдельными файлами:
Аудио: 48 kHz, AC3 Dolby Digital, 2/0 (L,R) ch, ~192 kbps - двухголосый
Аудио: 48 kHz, AC3 Dolby Digital, 3/2 (L,C,R,l,r) + LFE ch, ~448 kbps - оригинал
Формат файла субтитров: softsub (SRT)

Источник: Torrentc

http://Torrentc/forum/viewtopic.php?t=4467740

MediaInfo

GeneralComplete name : H:\Wicker.Park.2004.web-dlrip_[2.18]_[teko]\Wicker.Park.2004.web-dlrip_[2.18].aviFormat : AVIFormat/Info : Audio Video InterleaveFormat profile : OpenDMLFile size : 2.19 GiBDuration : 1h 54mnOverall bit rate : 2 722 KbpsWriting application : VirtualDubMod 1.5.10.3 | www.virtualdub-fr.org || (build 2550/release)Writing library : VirtualDubMod build 2550/release
VideoID : 0Format : MPEG-4 VisualFormat profile : Advanced Simple@L5Format settings, BVOP : 2Format settings, QPel : NoFormat settings, GMC : No warppointsFormat settings, Matrix : CustomCodec ID : XVIDCodec ID/Hint : XviDDuration : 1h 54mnBit rate : 2 128 KbpsWidth : 720 pixelsHeight : 304 pixelsDisplay aspect ratio : 2.35:1Frame rate : 23.976 (23976/1000) fpsColor space : YUVChroma subsampling : 4:2:0Bit depth : 8 bitsScan type : ProgressiveCompression mode : LossyBits/(Pixel*Frame) : 0.405Stream size : 1.71 GiB (78%)Writing library : XviD 73
Audio #1ID : 1Format : AC-3Format/Info : Audio Coding 3Mode extension : CM (complete main)Format settings, Endianness : BigCodec ID : 2000Duration : 1h 54mnBit rate mode : ConstantBit rate : 384 KbpsChannel(s) : 6 channelsChannel positions : Front: L C R, Side: L R, LFESampling rate : 48.0 KHzFrame rate : 31.250 fps (1536 spf)Compression mode : LossyStream size : 316 MiB (14%)Alignment : Split accross interleavesInterleave, duration : 42 ms (1.00 video frame)Interleave, preload duratio : 500 ms
Audio #2ID : 2Format : AC-3Format/Info : Audio Coding 3Mode extension : CM (complete main)Format settings, Endianness : BigCodec ID : 2000Duration : 1h 54mnBit rate mode : ConstantBit rate : 192 KbpsChannel(s) : 2 channelsChannel positions : Front: L RSampling rate : 48.0 KHzFrame rate : 31.250 fps (1536 spf)Compression mode : LossyStream size : 158 MiB (7%)Alignment : Split accross interleavesInterleave, duration : 42 ms (1.00 video frame)Interleave, preload duratio : 500 ms

Скриншоты

:--


[torrentc.info]_t_5594741.torrent
Торрент: Зарегистрирован ·  [ 2018-08-01 23:03 ] ·  59a62e673c1ff41c78a4ddd0d871b5eb352f6b33

14 KB

Статус: проверено
Скачан: 0 раз
Размер: 2.7 GB
Оценка: 
(Голосов: 0)
Сказали спасибо: 0  Спасибо
Похожие темы
[Профиль]    [ЛС]
Показать сообщения:    
Ответить на тему

Текущее время: Сегодня 06:56

Часовой пояс: GMT + 7



Вы не можете начинать темы
Вы не можете отвечать на сообщения
Вы не можете редактировать свои сообщения
Вы не можете удалять свои сообщения
Вы не можете голосовать в опросах
Вы не можете прикреплять файлы к сообщениям
Вы можете скачивать файлы