Потомок солнца / Descendant of the Sun / Ri jie (Чор Юэнь / Chor Yuen) [1983, Гонконг, боевые искусства, DVDRip] VO (Хоррор Мэйкер)

Ответить на тему
Статистика раздачи [Обновить пиров]
Размер:  1.37 GB   |    Зарегистрирован:  4 месяца 11 дней   |    Скачан:  0 раз

Полного источника не было: Никогда

 
   
 
 
 
Автор Сообщение

torrentc.info

Создавать темы 29-Июл-2018 19:37

[Цитировать]

Потомок солнца / Descendant of the Sun / Ri jie
Страна: Гонконг
Жанр: боевые искусства
Год выхода: 1983
Продолжительность: 01:23:31
Перевод: Одноголосый закадровый Хоррор Мэйкер
Субтитры: нет
Режиссер: Чор Юэнь / Chor Yuen
В ролях: Дерек Йи, Чери Чунг, Вонг Лик, Ку Куан Чунг, Лун Тьен-Сян, Нгай Фэй, Тон Минг, Чуан Сиао, Пинг Мэй
Описание: На небесах рождается удивительный ребенок, который должен принести в мир смертных свет. Но в то же самое время свое чадо вырастил змей-дьявол. Его самого удалось подавить, но оба ребенка отправились на землю без присмотра своих родителей. Потомка света находит бедный крестьянин, спустя 18 лет тот вырастает в доброго юношу, который скрывает свою истинную личность, но всегда готов прийти на помощь нуждающимся. Волею судеб он попадает в услужение к принцессе, которую пытается сместить ее коварный принц-регент…
Сэмпл: http://multi-up.com/1204956
Качество видео: DVDRip (Источник: Torrentc - DVD5)
Формат файла: AVI
Видео: XviD 73, 704x304, (2,35:1), 23,976 fps, 2153 Кбит/с, 8 бит
Аудио: Русский (АС3, 2 ch (Front: L R), 48,0 KHz, 192 Kbps

MediaInfo

ОбщееПолное имя : H:\Фильмы на трекер\Потомок солнца (боевые искусства 1983 год).aviФормат файла : AVIФормат файла/Информация : Audio Video InterleaveРазмер файла : 1,37 ГбайтПродолжительность : 1 ч. 23 м.Общий поток : 2354 Кбит/секПрограмма кодирования : VirtualDubMod 1.5.10.3 | www.virtualdub-fr.org || (build 2550/release)Библиотека кодирования : VirtualDubMod build 2550/release
ВидеоИдентификатор : 0Формат файла : MPEG-4 VisualПрофиль формата : Advanced Simple@L5Параметр BVOP формата : 2Параметр QPel формата : НетПараметр GMC формата : Без точки переходаПараметр матрицы формата : ВыборочнаяИдентификатор кодека : XVIDИдентификатор кодека/Подсказка : XviDПродолжительность : 1 ч. 23 м.Битрейт : 2153 Кбит/секШирина : 704 пикселяВысота : 304 пикселяСоотношение сторон : 2,35:1Частота кадров : 23,976 (24000/1001) кадра/секЦветовое пространство : YUVСубдискретизация насыщенности : 4:2:0Битовая глубина : 8 битТип развёртки : ПрогрессивнаяМетод сжатия : С потерямиБит/(Пиксели*Кадры) : 0.420Размер потока : 1,26 Гбайт (91%)Библиотека кодирования : XviD 73
АудиоИдентификатор : 1Формат файла : AC-3Формат файла/Информация : Audio Coding 3Расширение режима : CM (complete main)Параметр Endianness формата : BigИдентификатор кодека : 2000Продолжительность : 1 ч. 23 м.Вид битрейта : ПостоянныйБитрейт : 192 Кбит/секКаналы : 2 каналаРасположение каналов : Front: L RЧастота : 48,0 КГцЧастота кадров : 31,250 кадров/сек (1536 spf)Метод сжатия : С потерямиРазмер потока : 115 Мбайт (8%)Выравнивание : Разделение по промежуткамПродолжительность промежутка : 42 мс. (1,00 видеокадр)Время предзагрузки промежутка : 500 мс.

Скриншот c названием фильма

Скриншоты



[torrentc.info]_t_5593533.torrent
Торрент: Зарегистрирован ·  [ 2018-07-29 19:37 ] ·  209128c04e4f74ed7662072c327b5243691277f9

14 KB

Статус: проверено
Скачан: 0 раз
Размер: 1.37 GB
Оценка: 
(Голосов: 0)
Сказали спасибо: 0  Спасибо
Похожие темы
[Профиль]    [ЛС]
Показать сообщения:    
Ответить на тему

Текущее время: Сегодня 18:32

Часовой пояс: GMT + 7



Вы не можете начинать темы
Вы не можете отвечать на сообщения
Вы не можете редактировать свои сообщения
Вы не можете удалять свои сообщения
Вы не можете голосовать в опросах
Вы не можете прикреплять файлы к сообщениям
Вы можете скачивать файлы