Deep Purple - Over Zurich (Live At Kongresshaus - Private Show, 2007-12-18) [2010, Rock, DVDRip]

Ответить на тему
Статистика раздачи [Обновить пиров]
Размер:  770 MB   |    Зарегистрирован:  1 месяц 21 день   |    Скачан:  0 раз

Полного источника не было: Никогда

 
   
 
 
 
Автор Сообщение

torrentc.info

Создавать темы 28-Июл-2018 23:16

[Цитировать]

Deep Purple - Over Zurich (Live At Kongresshaus - Private Show, 2007-12-18)[img=right]https://i104.fastpic.ru/big/2018/0722/05/2050a98af2...572505.jpg[/img]
Жанр: Rock
Продолжительность: 01:03:11.
Год выхода: 2010
Описание: DVD выпущен пронумерованным тиражом в 1000 экземпляров и продаётся только на швейцарском сайте www.deeppurple.ch.
На нём запечатлён закрытый часовой концерт группы, организованный швейцарским банком для своих сотрудников и других приглашённых гостей 18.12.2007.
Но шоу совершенно не выглядит каким-то дополнительным блюдом к жующим за столиками банкирам. Это совершенно обычный концерт в нормальном зале, причём немаленьком, с сидячим партером и балконами. И публика подобралась что надо - на лицах сплошные улыбки, радость, вскакивание с мест и все остальные нормальные концертные эмоции, ничто не напоминает о статусе корпоративного мероприятия. Группа в хорошем настроении, сет-лист состоит сплошь из классики.
Из забавных моментов хотел бы отметить реплику Гиллана перед When A Blind Man Cries: "Welcome to the Led Zeppelin reunion"... Концерт проходил как раз через неделю после этого события.
Концерт отлично профессионально снят - 6 камер, включая камеру на кране, формат картинки 16:9, много крупных планов рук музыкантов, хороший монтаж.
Несмотря на локальность, это официальный релиз, выпущенный с разрешения Thames Talent и Брюса Пейна соответственно.

Константин Горлов
С.Петербург
Июль 2010 г.

(со слов автора исходного релиза Dr_Britva )
Треклист:
01) Pictures Of Home
02) Hush
03) Into The Fire
04) Strange Kind Of Woman
05) When A Blind Man Cries
06) Lazy
07) Perfect Strangers
08) Highway Star
09) Smoke On The Water
10) Black Night

Доп. информация: по видео

скрытый текст

Полное имя Deep Purple - Over Zurich 2007.avi
Формат файла : AVI
Формат файла/Информация : Audio Video Interleave
Размер файла : 770 Мбайт
Продолжительность : 1 ч. 3 м.
Общий поток : 1703 Кбит/сек
Программа кодирования : Lavf51.12.1
Видео
Идентификатор : 0
Формат файла : xvid
Идентификатор кодека : xvid
Продолжительность : 1 ч. 3 м.
Битрейт : 1501 Кбит/сек
Ширина : 688 пикселей
Высота : 384 пикселя
Соотношение сторон : 16:9
Частота кадров : 23,976 кадра/сек
Бит/(Пиксели*Кадры) : 0.237
Размер потока : 678 Мбайт (88%)
Аудио
Идентификатор : 1
Формат файла : AC-3
Формат файла/Информация : Audio Coding 3
Расширение режима : CM (complete main)
Параметр Endianness формата : Big
Идентификатор кодека : 2000
Продолжительность : 1 ч. 3 м.
Вид битрейта : Постоянный
Битрейт : 192 Кбит/сек
Каналы : 2 канала
Расположение каналов : Front: L R
Частота : 48,0 КГц
Битовая глубина : 16 бит
Метод сжатия : С потерями
Размер потока : 86,8 Мбайт (11%)
Выравнивание : Соединение по промежуткам
Продолжительность промежутка : 32 мс. (0,77 видеокадр)
Время предзагрузки промежутка : 32 мс.
Источник: собственный рип
Cсылка http://Torrentc/forum/viewtopic.php?t=3273453
Качество: DVDRip
Формат файла: AVI
Видео кодек: XviD
Аудио кодек: AC3
Видео: : 688x384 (1.79:1), 23.970 fps, XviD build 63 ~1500 kbps avg, 0.24 bit/pixel
Аудио: 48 kHz, AC3 Dolby Digital, 2/0 (L,R) ch, ~192.00 kbps avg
Мои другие раздачи 1 - [url=tracker.php?rid=14861751]http://Torrentc/forum/tracker.php?rid=14861751[/url]
Мои другие раздачи 2- [url=tracker.php?rid=26740408]http://Torrentc/forum/tracker.php?rid=26740408[/url]Приятного просмотра!


[torrentc.info]_t_5590827.torrent
Торрент: Зарегистрирован ·  [ 2018-07-28 23:16 ] ·  a96097dd680c662ae562db565346e83b36851831

15 KB

Статус: проверено
Скачан: 0 раз
Размер: 770 MB
Оценка: 
(Голосов: 0)
Сказали спасибо: 0  Спасибо
Похожие темы
[Профиль]    [ЛС]
Показать сообщения:    
Ответить на тему

Текущее время: Сегодня 14:08

Часовой пояс: GMT + 7



Вы не можете начинать темы
Вы не можете отвечать на сообщения
Вы не можете редактировать свои сообщения
Вы не можете удалять свои сообщения
Вы не можете голосовать в опросах
Вы не можете прикреплять файлы к сообщениям
Вы можете скачивать файлы