Герои Шаолиня / Hero of the Wild / Da wu shi yu xiao piao ke (Чи Чан / Chi Chang) [1977, Тайвань, Боевые искусства, DVDRip] VO

Ответить на тему
Статистика раздачи [Обновить пиров]
Размер:  1.46 GB   |    Зарегистрирован:  4 месяца 13 дней   |    Скачан:  0 раз

Полного источника не было: Никогда

 
   
 
 
 
Автор Сообщение

torrentc.info

Создавать темы 28-Июл-2018 20:04

[Цитировать]

Герои Шаолиня / Hero of the Wild / Da wu shi yu xiao piao ke
Страна: Тайвань
Жанр: Боевые искусства
Год выхода: 1977
Продолжительность: 01:37:22
Перевод: Одноголосый закадровый
Субтитры: нет
Режиссер: Чи Чан / Chi Chang
В ролях: Чан Син, Тин Ва-Чунг, Хванг Джанг-Ли, Лье Ло, Дорис Лун, Чэнь Минли, Бяо Юэнь, Кори Юэнь, Гот Сиу-Бо, Вонг Юй, Пак Лам, Армстронг Юэнь
Описание: Мальчик и его отец пускают воздушного змея на пляже. Внезапно появляется прошлый враг отца, Ду Дашань, который требует реванша после поражения. Парень в ужасе от того, что после поражения отец убивает сам себя. Он тут же бросается на незнакомца, желая отомстить. Ду Дашань с лёгкостью побеждает парня, но вместо того, чтобы убить, позволяет мальчику пойти с ним, предлагая научить боевым искусствам, чтобы тот когда-нибудь смог победить учителя. Мальчик соглашается и учится у него; и через серию событий парень мстит, но всё происходит не так, как он планировал...
Сэмпл: http://sendfile.su/1433221
Качество видео: DVDRip
Формат файла: AVI
Видео: Xvid 624x464 29.97fps 1940kbps
Аудио: Dolby AC3 48000Hz stereo 192kbps

MediaInfo

GeneralComplete name : C:\Videos\ Hero of the Wild.aviFormat : AVIFormat/Info : Audio Video InterleaveFile size : 1.46 GiBDuration : 1h 37mnOverall bit rate : 2 140 KbpsWriting application : VirtualDubMod 1.5.4.1 (build 2178/release)Writing library : VirtualDubMod build 2178/release
VideoID : 0Format : MPEG-4 VisualFormat profile : Advanced Simple@L5Format settings, BVOP : 1Format settings, QPel : NoFormat settings, GMC : No warppointsFormat settings, Matrix : CustomCodec ID : XVIDCodec ID/Hint : XviDDuration : 1h 37mnBit rate : 1 940 KbpsWidth : 624 pixelsHeight : 464 pixelsDisplay aspect ratio : 4:3Frame rate : 29.970 fpsColor space : YUVChroma subsampling : 4:2:0Bit depth : 8 bitsScan type : ProgressiveCompression mode : LossyBits/(Pixel*Frame) : 0.224Stream size : 1.32 GiB (91%)Writing library : XviD 1.2.1 (UTC 2008-12-04)
AudioID : 1Format : AC-3Format/Info : Audio Coding 3Mode extension : CM (complete main)Codec ID : 2000Duration : 1h 37mnBit rate mode : ConstantBit rate : 192 KbpsChannel(s) : 2 channelsChannel positions : Front: L RSampling rate : 48.0 KHzBit depth : 16 bitsCompression mode : LossyStream size : 134 MiB (9%)Alignment : Split accross interleavesInterleave, duration : 96 ms (2.88 video frames)Interleave, preload duration : 96 msLanguage : Russian

Скриншот c названием фильма

Скриншоты



[torrentc.info]_t_5593132.torrent
Торрент: Зарегистрирован ·  [ 2018-07-28 20:04 ] ·  babf3e0613d0e52bc49fd21cfcdc958d781b8502

15 KB

Статус: проверено
Скачан: 0 раз
Размер: 1.46 GB
Оценка: 
(Голосов: 0)
Сказали спасибо: 0  Спасибо
Похожие темы
[Профиль]    [ЛС]
Показать сообщения:    
Ответить на тему

Текущее время: Сегодня 16:08

Часовой пояс: GMT + 7



Вы не можете начинать темы
Вы не можете отвечать на сообщения
Вы не можете редактировать свои сообщения
Вы не можете удалять свои сообщения
Вы не можете голосовать в опросах
Вы не можете прикреплять файлы к сообщениям
Вы можете скачивать файлы