[SACD-R][TR24] Mika Nakashima - KISS OF DEATH (Produced by HYDE) [Darling in the FranXX OP Single] (обычное) - 2018 (Soundtrack, Anime, Vocal)

Ответить на тему
Статистика раздачи [Обновить пиров]
Размер:  572 MB   |    Зарегистрирован:  4 месяца 27 дней   |    Скачан:  0 раз

Полного источника не было: Никогда

 
   
 
 
 
Автор Сообщение

torrentc.info

Создавать темы 14-Июл-2018 22:17

[Цитировать]

Mika Nakashima — KISS OF DEATH (Produced by HYDE)
(Darling in the FranXX OP single)
-[img=left]https://b.radikal.ru/b18/1807/be/38da8206ea43.jpg[/img]
Страна: Япония
Издание: обычное
Год издания: 2018-Жанр: Soundtrack, Anime, Vocal
Издатель (лейбл): Sony Music Associated Records
Номер по каталогу: AICL-3496-Формат файла записи/Источник записи: [SACD-R][TR24]
Тип рипа: tracks
Разрядность: 24/96
Количество каналов: 2.0
Формат файла: FLAC (*.flac)
Формат файла: WAV (flac.ape.wv)-Наличие сканов в содержимом раздачи: Нет
Наличие водяных знаков: Нет
Откуда: от верблюда-Продолжительность: 00:17:15-Треклист:
01. KISS OF DEATH (Produced by HYDE)
02. GLAMOROUS SKY (Re:Present 2018)
03. KISS OF DEATH (Produced by HYDE) -instrumental-
04. GLAMOROUS SKY (Re:Present 2018) -instrumental-

Скриншот спектра частот

[img]https://c.radikal.ru/c33/1807/d2/0e38a08528b9.png[/img]

Лог проверки качества

foobar2000 1.3.17 / Замер динамического диапазона (DR) 1.1.1Дата отчёта: 2018-07-13 22:46:26
--------------------------------------------------------------------------------Анализ: Mika Nakashima / KISS OF DEATH (Produced by HYDE) (1-2) NANA starring MIKA NAKASHIMA / KISS OF DEATH (Produced by HYDE) (3-4)--------------------------------------------------------------------------------
DR Пики RMS Продолжительность трека--------------------------------------------------------------------------------DR4 0.00 дБ -5.83 дБ 4:10 01-KISS OF DEATHDR5 0.00 дБ -6.30 дБ 4:10 03-KISS OF DEATH(Produced by HYDE)instrumentalDR5 0.00 дБ -5.63 дБ 4:29 02-GLAMOROUS SKY(Re:Present 2018)DR6 0.00 дБ -6.30 дБ 4:27 04-GLAMOROUS SKY(Re:Present 2018)instrumental--------------------------------------------------------------------------------
Количество треков: 4Реальные значения DR: DR5
Частота: 96000 ГцКаналов: 2Разрядность: 24Битрейт: 4605 кбит/сКодек: FLAC================================================================================

MediaInfo

ОбщееПолное имя : J:\[Anime]\Mika Nakashima - KISS OF DEATH (Produced by HYDE)\01. KISS OF DEATH (Produced by HYDE).flacФормат файла : FLACФормат файла/Информация : Free Lossless Audio CodecРазмер файла : 138 МбайтПродолжительность : 4 м. 9 с.Режим общего битрейта : ПеременныйОбщий поток : 4633 Кбит/секАльбом : KISS OF DEATH (Produced by HYDE)Альбом/Исполнитель : Mika NakashimaЧасть : 1Часть/Всего : 1Трек : KISS OF DEATHТрек/Положение : 1Трек/Всего : 4Исполнитель : Mika NakashimaКомпозитор : HYDEПродюсер : JASRAC / Sony Music Labels Inc.Жанр : AnimeДата записи : 2018Авторское право : (P)2018 Sony Music Associated RecordsОбложка : YesТип обложки : Cover (front)MIME-тип обложки : image/jpeg8E90F26B-372A-5C8C-BB05-1EC0F36EE60C : AIXX01207B01A93A74BEA-CE97-5571-A56A-C5084DBA9873 : JPU901704127BE242671-3D48-5AC8-B762-7D2DB4F584B8 : 11402860
АудиоФормат файла : FLACФормат файла/Информация : Free Lossless Audio CodecПродолжительность : 4 м. 9 с.Вид битрейта : ПеременныйБитрейт : 4616 Кбит/секКаналы : 2 каналаРасположение каналов : Front: L RЧастота : 96,0 КГцБитовая глубина : 24 битРазмер потока : 137 Мбайт (100%)Библиотека кодирования : libFLAC 1.3.1 (UTC 2014-11-25)


[torrentc.info]_t_5586995.torrent
Торрент: Зарегистрирован ·  [ 2018-07-14 22:17 ] ·  3a02d801ae134424b24ff5d929ddb4d7cfe9b343

12 KB

Статус: проверено
Скачан: 0 раз
Размер: 572 MB
Оценка: 
(Голосов: 0)
Сказали спасибо: 0  Спасибо
Похожие темы
[Профиль]    [ЛС]
Показать сообщения:    
Ответить на тему

Текущее время: Сегодня 16:07

Часовой пояс: GMT + 7



Вы не можете начинать темы
Вы не можете отвечать на сообщения
Вы не можете редактировать свои сообщения
Вы не можете удалять свои сообщения
Вы не можете голосовать в опросах
Вы не можете прикреплять файлы к сообщениям
Вы можете скачивать файлы