(House, Deep House, Cool Jazz) [CD] VA - Jazz\'ngo Vol. 2 - 1994, FLAC (tracks+.cue), lossless

Ответить на тему
Статистика раздачи [Обновить пиров]
Размер:  468 MB   |    Зарегистрирован:  3 месяца 4 дня   |    Скачан:  0 раз
Сидеров:  1  [  0 KB/s  ]   Подробная статистика скачивающих
 
   
 
 
 
Автор Сообщение

torrentc.info

Создавать темы 13-Июл-2018 22:29

[Цитировать]

VA - Jazz'ngo Vol. 2- Жанр: House, Deep House, Cool Jazz
Носитель: CD
Страна-производитель диска (релиза): USA
Год издания: 1994
Издатель (лейбл): ARS Productions
Номер по каталогу: 740 027-2
Аудиокодек: FLAC (*.flac)
Тип рипа: tracks+.cue
Битрейт аудио: lossless
Продолжительность: 01:16:03
Источник (релизер): RED
Наличие сканов в содержимом раздачи: нет
Треклист:
01. CFM Band - Acid Soul [00:04:48]
02. Jazz Vandall's - Taking Liberties [00:04:57]
03. The Vibes - Happy Vibes [00:06:17]
04. Atmosfear - Marsmallow [00:04:02]
05. Big Up Jazz - Heat Treatment (Cool Jazz, Cool Jazz) [00:05:01]
06. Vertigo - Soft'n Saxy [00:04:02]
07. New Concept - Lyrical Jazzman [00:03:30]
08. Jazz Vandall's - Fly Mutha Beats (Superfly Mix) [00:05:50]
09. Basic Jam - Hot [00:04:09]
10. New Concept - Free As A Bird [00:05:05]
11. CFM Band - My Baby [00:06:55]
12. Paradise 3001 - Cherry High Pt. 2 [00:05:19]
13. Basic Jam - Cool [00:04:31]
14. Jazzione - Lovely Piano [00:04:23]
15. Martin King 'Quartet' - Home Time Baby [00:02:53]
16. 3 A.M. Band - Forget Me Not [00:04:13]

Лог создания рипа

X Lossless Decoder version 20161007 (149.3)
XLD extraction logfile from 2017-01-01 20:22:23 +0100
Various Artists / Jazzy Grooves - Volume 2
Used drive : MATSHITA DVD-R UJ-898 (revision HC10)Media type : Pressed CD
Ripper mode : XLD Secure RipperDisable audio cache : OK for the drive with a cache less than 1375KiBMake use of C2 pointers : NORead offset correction : 102Max retry count : 100Gap status : Analyzed, Appended (except HTOA)
TOC of the extracted CD Track | Start | Length | Start sector | End sector --------------------------------------------------------- 1 | 00:00:00 | 04:48:20 | 0 | 21619 2 | 04:48:20 | 04:57:15 | 21620 | 43909 3 | 09:45:35 | 06:17:15 | 43910 | 72199 4 | 16:02:50 | 04:02:00 | 72200 | 90349 5 | 20:04:50 | 05:01:62 | 90350 | 112986 6 | 25:06:37 | 04:02:30 | 112987 | 131166 7 | 29:08:67 | 03:30:03 | 131167 | 146919 8 | 32:38:70 | 05:50:67 | 146920 | 173236 9 | 38:29:62 | 04:09:63 | 173237 | 191974 10 | 42:39:50 | 05:05:42 | 191975 | 214891 11 | 47:45:17 | 06:55:63 | 214892 | 246079 12 | 54:41:05 | 05:19:57 | 246080 | 270061 13 | 60:00:62 | 04:31:73 | 270062 | 290459 14 | 64:32:60 | 04:23:25 | 290460 | 310209 15 | 68:56:10 | 02:53:50 | 310210 | 323234 16 | 71:49:60 | 04:13:57 | 323235 | 342266
AccurateRip Summary (DiscID: 002d7ec4-0220ca1a-de11d310) Track 01 : OK (v1+v2, confidence 5/5) Track 02 : OK (v1+v2, confidence 5/5) Track 03 : OK (v1+v2, confidence 5/5) Track 04 : OK (v2, confidence 3/3) Track 05 : OK (v1+v2, confidence 5/5) Track 06 : OK (v1+v2, confidence 5/5) Track 07 : OK (v1+v2, confidence 5/5) Track 08 : OK (v1+v2, confidence 5/5) Track 09 : OK (v1+v2, confidence 5/5) Track 10 : OK (v1+v2, confidence 5/5) Track 11 : OK (v1, confidence 2/2) Track 12 : OK (v1+v2, confidence 4/4) Track 13 : OK (v1+v2, confidence 4/4) Track 14 : OK (v1+v2, confidence 4/4) Track 15 : OK (v1+v2, confidence 4/4) Track 16 : OK (v1+v2, confidence 4/4) ->All tracks accurately ripped.
All Tracks Album gain : -2.86 dB Peak : 0.977905 Statistics Read error : 0 Jitter error (maybe fixed) : 0 Retry sector count : 0 Damaged sector count : 0
Track 01 Filename : /XLD/Various Artists - Jazzy Grooves - Volume 2 (1994) [FLAC]/01 - CFM Band - Acid Soul.flac Pre-gap length : 00:02:00
Track gain : -1.89 dB Peak : 0.977905 CRC32 hash (test run) : D1FE184C CRC32 hash : D1FE184C CRC32 hash (skip zero) : BEA23317 AccurateRip v1 signature : C1311CC1 AccurateRip v2 signature : 8A3698C7 ->Accurately ripped (v1+v2, confidence 2+3/5) Statistics Read error : 0 Jitter error (maybe fixed) : 0 Retry sector count : 0 Damaged sector count : 0
Track 02 Filename : /XLD/Various Artists - Jazzy Grooves - Volume 2 (1994) [FLAC]/02 - The Jazz Vandall's - Taking Liberties.flac Pre-gap length : 00:01:45
Track gain : -3.90 dB Peak : 0.977905 CRC32 hash (test run) : 7476BFC3 CRC32 hash : 7476BFC3 CRC32 hash (skip zero) : D6403063 AccurateRip v1 signature : 888D3655 AccurateRip v2 signature : 6B2FD57A ->Accurately ripped (v1+v2, confidence 2+3/5) Statistics Read error : 0 Jitter error (maybe fixed) : 0 Retry sector count : 0 Damaged sector count : 0
Track 03 Filename : /XLD/Various Artists - Jazzy Grooves - Volume 2 (1994) [FLAC]/03 - Happy Vibes - The Vibes.flac Pre-gap length : 00:01:35
Track gain : -0.69 dB Peak : 0.977905 CRC32 hash (test run) : E03E750F CRC32 hash : E03E750F CRC32 hash (skip zero) : 96C95B4B AccurateRip v1 signature : 9BE06945 AccurateRip v2 signature : 32DB32D7 ->Accurately ripped (v1+v2, confidence 2+3/5) Statistics Read error : 0 Jitter error (maybe fixed) : 0 Retry sector count : 0 Damaged sector count : 0
Track 04 Filename : /XLD/Various Artists - Jazzy Grooves - Volume 2 (1994) [FLAC]/04 - Atmosfear - Marshmallow.flac Pre-gap length : 00:01:08
Track gain : -2.76 dB Peak : 0.923828 CRC32 hash (test run) : BF53B81C CRC32 hash : BF53B81C CRC32 hash (skip zero) : 32D01F1D AccurateRip v1 signature : D0A3D727 AccurateRip v2 signature : E4840A98 ->Accurately ripped (v2, confidence 3/3) Statistics Read error : 0 Jitter error (maybe fixed) : 0 Retry sector count : 0 Damaged sector count : 0
Track 05 Filename : /XLD/Various Artists - Jazzy Grooves - Volume 2 (1994) [FLAC]/05 - Big Up Jazz - Hear Treatment (Cool Jazz, Cool Jazz).flac Pre-gap length : 00:00:68
Track gain : -3.77 dB Peak : 0.904602 CRC32 hash (test run) : FB8E98AC CRC32 hash : FB8E98AC CRC32 hash (skip zero) : 6D7F8D6E AccurateRip v1 signature : 192A6199 AccurateRip v2 signature : F72CBC08 ->Accurately ripped (v1+v2, confidence 2+3/5) Statistics Read error : 0 Jitter error (maybe fixed) : 0 Retry sector count : 0 Damaged sector count : 0
Track 06 Filename : /XLD/Various Artists - Jazzy Grooves - Volume 2 (1994) [FLAC]/06 - Vertigo - Soft'n Saxy.flac Pre-gap length : 00:01:25
Track gain : -1.38 dB Peak : 0.956879 CRC32 hash (test run) : EAE97C88 CRC32 hash : EAE97C88 CRC32 hash (skip zero) : E9FC8B62 AccurateRip v1 signature : DB5C39CD AccurateRip v2 signature : 014F9122 ->Accurately ripped (v1+v2, confidence 2+3/5) Statistics Read error : 0 Jitter error (maybe fixed) : 0 Retry sector count : 0 Damaged sector count : 0
Track 07 Filename : /XLD/Various Artists - Jazzy Grooves - Volume 2 (1994) [FLAC]/07 - New Concept - Lyrical Jazzman.flac Pre-gap length : 00:01:12
Track gain : -3.42 dB Peak : 0.977905 CRC32 hash (test run) : 53FDDB61 CRC32 hash : 53FDDB61 CRC32 hash (skip zero) : 9C627E1B AccurateRip v1 signature : EBC384DF AccurateRip v2 signature : 86D5D255 ->Accurately ripped (v1+v2, confidence 2+3/5) Statistics Read error : 0 Jitter error (maybe fixed) : 0 Retry sector count : 0 Damaged sector count : 0
Track 08 Filename : /XLD/Various Artists - Jazzy Grooves - Volume 2 (1994) [FLAC]/08 - The Jazz Vandall's - Fly Mutha Beats (Superfly Mix).flac Pre-gap length : 00:01:45
Track gain : -0.24 dB Peak : 0.977875 CRC32 hash (test run) : F0958F7A CRC32 hash : F0958F7A CRC32 hash (skip zero) : 93076AFE AccurateRip v1 signature : BA11684C AccurateRip v2 signature : 131DC74D ->Accurately ripped (v1+v2, confidence 2+3/5) Statistics Read error : 0 Jitter error (maybe fixed) : 0 Retry sector count : 0 Damaged sector count : 0
Track 09 Filename : /XLD/Various Artists - Jazzy Grooves - Volume 2 (1994) [FLAC]/09 - Basic Jam - Hot.flac Pre-gap length : 00:00:20
Track gain : -2.54 dB Peak : 0.927185 CRC32 hash (test run) : EBA47FFA CRC32 hash : EBA47FFA CRC32 hash (skip zero) : 4508C5D7 AccurateRip v1 signature : 859151CF AccurateRip v2 signature : B5EDE93B ->Accurately ripped (v1+v2, confidence 2+3/5) Statistics Read error : 0 Jitter error (maybe fixed) : 0 Retry sector count : 0 Damaged sector count : 0
Track 10 Filename : /XLD/Various Artists - Jazzy Grooves - Volume 2 (1994) [FLAC]/10 - New Concept - Free As A Bird.flac Pre-gap length : 00:00:50
Track gain : -4.92 dB Peak : 0.941498 CRC32 hash (test run) : D672284E CRC32 hash : D672284E CRC32 hash (skip zero) : 876F5527 AccurateRip v1 signature : C880B75A AccurateRip v2 signature : 95C6C49F ->Accurately ripped (v1+v2, confidence 2+3/5) Statistics Read error : 0 Jitter error (maybe fixed) : 0 Retry sector count : 0 Damaged sector count : 0
Track 11 Filename : /XLD/Various Artists - Jazzy Grooves - Volume 2 (1994) [FLAC]/11 - CFM Band - My Baby.flac Pre-gap length : 00:01:25
Track gain : -4.07 dB Peak : 0.977875 CRC32 hash (test run) : 12F0576B CRC32 hash : 12F0576B CRC32 hash (skip zero) : AFA9401F AccurateRip v1 signature : 1903ED8C AccurateRip v2 signature : CBF09CDB ->Accurately ripped (v1, confidence 2/2) Statistics Read error : 0 Jitter error (maybe fixed) : 0 Retry sector count : 0 Damaged sector count : 0
Track 12 Filename : /XLD/Various Artists - Jazzy Grooves - Volume 2 (1994) [FLAC]/12 - Paradise 3001 - Cherry High Pt. 2.flac Pre-gap length : 00:01:08
Track gain : -2.95 dB Peak : 0.977905 CRC32 hash (test run) : DCB17D3F CRC32 hash : DCB17D3F CRC32 hash (skip zero) : 73890708 AccurateRip v1 signature : 1F15EC97 AccurateRip v2 signature : 32304B77 ->Accurately ripped (v1+v2, confidence 2+2/4) Statistics Read error : 0 Jitter error (maybe fixed) : 0 Retry sector count : 0 Damaged sector count : 0
Track 13 Filename : /XLD/Various Artists - Jazzy Grooves - Volume 2 (1994) [FLAC]/13 - Basic Jam - Cool.flac Pre-gap length : 00:01:25
Track gain : -0.98 dB Peak : 0.977875 CRC32 hash (test run) : AF7CF19E CRC32 hash : AF7CF19E CRC32 hash (skip zero) : E5E030CA AccurateRip v1 signature : 4C7FE0D0 AccurateRip v2 signature : 42773E54 ->Accurately ripped (v1+v2, confidence 2+2/4) Statistics Read error : 0 Jitter error (maybe fixed) : 0 Retry sector count : 0 Damaged sector count : 0
Track 14 Filename : /XLD/Various Artists - Jazzy Grooves - Volume 2 (1994) [FLAC]/14 - Jazzione - Lovely Piano.flac Pre-gap length : 00:01:18
Track gain : -3.18 dB Peak : 0.906952 CRC32 hash (test run) : DE6C6C0D CRC32 hash : DE6C6C0D CRC32 hash (skip zero) : 40A0CCDF AccurateRip v1 signature : 01108B10 AccurateRip v2 signature : 7CC086AA ->Accurately ripped (v1+v2, confidence 2+2/4) Statistics Read error : 0 Jitter error (maybe fixed) : 0 Retry sector count : 0 Damaged sector count : 0
Track 15 Filename : /XLD/Various Artists - Jazzy Grooves - Volume 2 (1994) [FLAC]/15 - Martin King 'Quartet' - Home Time Baby.flac Pre-gap length : 00:00:40
Track gain : -1.57 dB Peak : 0.977905 CRC32 hash (test run) : 0683EB15 CRC32 hash : 0683EB15 CRC32 hash (skip zero) : E433021D AccurateRip v1 signature : CCA33E7B AccurateRip v2 signature : 4BA339D6 ->Accurately ripped (v1+v2, confidence 2+2/4) Statistics Read error : 0 Jitter error (maybe fixed) : 0 Retry sector count : 0 Damaged sector count : 0
Track 16 Filename : /XLD/Various Artists - Jazzy Grooves - Volume 2 (1994) [FLAC]/16 - 3 A.M. Band - Forget Me Not.flac Pre-gap length : 00:00:53
Track gain : -2.36 dB Peak : 0.977905 CRC32 hash (test run) : 0F43CFAC CRC32 hash : 0F43CFAC CRC32 hash (skip zero) : F15A01B9 AccurateRip v1 signature : B6892C59 AccurateRip v2 signature : D949FF54 ->Accurately ripped (v1+v2, confidence 2+2/4) Statistics Read error : 0 Jitter error (maybe fixed) : 0 Retry sector count : 0 Damaged sector count : 0
No errors occurred
End of status report
-----BEGIN XLD SIGNATURE-----2dr3SzNCmBZGREF8c07ff9MmEODmcgMCg5bjROhD3fYIJC1jhPXZhgFv9h5c5.gd6CKbymZ2Tlk3egShkIW.EGivGaEavvhfOE.R3Y8-----END XLD SIGNATURE-----

Содержание индексной карты (.CUE)

TITLE "Jazzy Grooves - Volume 2"REM DATE "1994"REM DISCID DE11D310REM REPLAYGAIN_ALBUM_GAIN -2.86 dBREM REPLAYGAIN_ALBUM_PEAK 0.977905FILE "01 - CFM Band - Acid Soul.flac" WAVE TRACK 01 AUDIO TITLE "Acid Soul" PERFORMER "CFM Band" REM REPLAYGAIN_TRACK_GAIN -1.89 dB REM REPLAYGAIN_TRACK_PEAK 0.977905 INDEX 01 00:00:00 TRACK 02 AUDIO TITLE "Taking Liberties" PERFORMER "The Jazz Vandall's" REM REPLAYGAIN_TRACK_GAIN -3.90 dB REM REPLAYGAIN_TRACK_PEAK 0.977905 INDEX 00 04:46:50FILE "02 - The Jazz Vandall's - Taking Liberties.flac" WAVE INDEX 01 00:00:00 TRACK 03 AUDIO TITLE "The Vibes" PERFORMER "Happy Vibes" REM REPLAYGAIN_TRACK_GAIN -0.69 dB REM REPLAYGAIN_TRACK_PEAK 0.977905 INDEX 00 04:55:55FILE "03 - Happy Vibes - The Vibes.flac" WAVE INDEX 01 00:00:00 TRACK 04 AUDIO TITLE "Marshmallow" PERFORMER "Atmosfear" REM REPLAYGAIN_TRACK_GAIN -2.76 dB REM REPLAYGAIN_TRACK_PEAK 0.923828 INDEX 00 06:16:07FILE "04 - Atmosfear - Marshmallow.flac" WAVE INDEX 01 00:00:00 TRACK 05 AUDIO TITLE "Hear Treatment (Cool Jazz, Cool Jazz)" PERFORMER "Big Up Jazz" REM REPLAYGAIN_TRACK_GAIN -3.77 dB REM REPLAYGAIN_TRACK_PEAK 0.904602 INDEX 00 04:01:07FILE "05 - Big Up Jazz - Hear Treatment (Cool Jazz, Cool Jazz).flac" WAVE INDEX 01 00:00:00 TRACK 06 AUDIO TITLE "Soft'n Saxy" PERFORMER "Vertigo" REM REPLAYGAIN_TRACK_GAIN -1.38 dB REM REPLAYGAIN_TRACK_PEAK 0.956879 INDEX 00 05:00:37FILE "06 - Vertigo - Soft'n Saxy.flac" WAVE INDEX 01 00:00:00 TRACK 07 AUDIO TITLE "Lyrical Jazzman" PERFORMER "New Concept" REM REPLAYGAIN_TRACK_GAIN -3.42 dB REM REPLAYGAIN_TRACK_PEAK 0.977905 INDEX 00 04:01:18FILE "07 - New Concept - Lyrical Jazzman.flac" WAVE INDEX 01 00:00:00 TRACK 08 AUDIO TITLE "Fly Mutha Beats (Superfly Mix)" PERFORMER "The Jazz Vandall's" REM REPLAYGAIN_TRACK_GAIN -0.24 dB REM REPLAYGAIN_TRACK_PEAK 0.977875 INDEX 00 03:28:33FILE "08 - The Jazz Vandall's - Fly Mutha Beats (Superfly Mix).flac" WAVE INDEX 01 00:00:00 TRACK 09 AUDIO TITLE "Hot" PERFORMER "Basic Jam" REM REPLAYGAIN_TRACK_GAIN -2.54 dB REM REPLAYGAIN_TRACK_PEAK 0.927185 INDEX 00 05:50:47FILE "09 - Basic Jam - Hot.flac" WAVE INDEX 01 00:00:00 TRACK 10 AUDIO TITLE "Free As A Bird" PERFORMER "New Concept" REM REPLAYGAIN_TRACK_GAIN -4.92 dB REM REPLAYGAIN_TRACK_PEAK 0.941498 INDEX 00 04:09:13FILE "10 - New Concept - Free As A Bird.flac" WAVE INDEX 01 00:00:00 TRACK 11 AUDIO TITLE "My Baby" PERFORMER "CFM Band" REM REPLAYGAIN_TRACK_GAIN -4.07 dB REM REPLAYGAIN_TRACK_PEAK 0.977875 INDEX 00 05:04:17FILE "11 - CFM Band - My Baby.flac" WAVE INDEX 01 00:00:00 TRACK 12 AUDIO TITLE "Cherry High Pt. 2" PERFORMER "Paradise 3001" REM REPLAYGAIN_TRACK_GAIN -2.95 dB REM REPLAYGAIN_TRACK_PEAK 0.977905 INDEX 00 06:54:55FILE "12 - Paradise 3001 - Cherry High Pt. 2.flac" WAVE INDEX 01 00:00:00 TRACK 13 AUDIO TITLE "Cool" PERFORMER "Basic Jam" REM REPLAYGAIN_TRACK_GAIN -0.98 dB REM REPLAYGAIN_TRACK_PEAK 0.977875 INDEX 00 05:18:32FILE "13 - Basic Jam - Cool.flac" WAVE INDEX 01 00:00:00 TRACK 14 AUDIO TITLE "Lovely Piano" PERFORMER "Jazzione" REM REPLAYGAIN_TRACK_GAIN -3.18 dB REM REPLAYGAIN_TRACK_PEAK 0.906952 INDEX 00 04:30:55FILE "14 - Jazzione - Lovely Piano.flac" WAVE INDEX 01 00:00:00 TRACK 15 AUDIO TITLE "Home Time Baby" PERFORMER "Martin King 'Quartet'" REM REPLAYGAIN_TRACK_GAIN -1.57 dB REM REPLAYGAIN_TRACK_PEAK 0.977905 INDEX 00 04:22:60FILE "15 - Martin King 'Quartet' - Home Time Baby.flac" WAVE INDEX 01 00:00:00 TRACK 16 AUDIO TITLE "Forget Me Not" PERFORMER "3 A.M. Band" REM REPLAYGAIN_TRACK_GAIN -2.36 dB REM REPLAYGAIN_TRACK_PEAK 0.977905 INDEX 00 02:52:72FILE "16 - 3 A.M. Band - Forget Me Not.flac" WAVE INDEX 01 00:00:00


[torrentc.info]_t_5582701.torrent
Торрент: Зарегистрирован ·  [ 2018-07-13 22:26 ] ·  64e28410767c0e87f554f629913d0175bfe734cf

20 KB

Статус: проверено
Скачан: 0 раз
Размер: 468 MB
Оценка: 
(Голосов: 0)
Сказали спасибо: 0  Спасибо
Похожие темы
[Профиль]    [ЛС]
Показать сообщения:    
Ответить на тему

Текущее время: Сегодня 18:31

Часовой пояс: GMT + 7



Вы не можете начинать темы
Вы не можете отвечать на сообщения
Вы не можете редактировать свои сообщения
Вы не можете удалять свои сообщения
Вы не можете голосовать в опросах
Вы не можете прикреплять файлы к сообщениям
Вы можете скачивать файлы