(RIO / Avant-Prog / Experimental) [WEB] The End - Svårmod Och Vemod Är Värdesinnen [Svarmod Och Vemod Ar Vardesinnen] - 2018, FLAC (tracks), lossless

Ответить на тему
Статистика раздачи [Обновить пиров]
Размер:  260 MB   |    Зарегистрирован:  1 месяц 9 дней   |    Скачан:  0 раз

Полного источника не было: Никогда

 
   
 
 
 
Автор Сообщение

torrentc.info

Создавать темы 06-Июл-2018 22:16

[Цитировать]

The End / Svårmod Och Vemod Är Värdesinnen [Svarmod Och Vemod Ar Vardesinnen]
Жанр: RIO / Avant-Prog / Experimental
Носитель: WEB
Год издания: 2018
Издатель (лейбл): Web Release [RareNoise Records]
Страна исполнителя (группы): Norway
Аудиокодек: FLAC (*.flac)
Тип рипа: tracks
Битрейт аудио: lossless
Продолжительность: 43:46 min
Источник (релизер): bandcamp.com
Наличие сканов в содержимом раздачи:
Треклист:
1. Svårmod. 3:50
2. Vemod. 3:57
3. Translated Slaughter. 14:14
4. Don't Wait. 14:57
5. Rich And Poor. 0:54
6. Both Sides Out. 5:51

DRM.log

foobar2000 1.3.8 / Dynamic Range Meter 1.1.1log date: 2018-07-02 23:15:38
--------------------------------------------------------------------------------Analyzed: The End / Svårmod Och Vemod Är Vardesinnen--------------------------------------------------------------------------------
DR Peak RMS Duration Track--------------------------------------------------------------------------------DR5 -0.50 dB -7.45 dB 3:51 01-SvårmodDR5 -0.50 dB -7.28 dB 3:58 02-VemodDR6 -0.50 dB -11.08 dB 14:15 03-Translated SlaughterDR6 -0.50 dB -8.05 dB 14:58 04-Don't WaitDR10 -0.50 dB -14.10 dB 0:55 05-Rich and PoorDR5 -0.50 dB -7.84 dB 5:51 06-Both Sides Out--------------------------------------------------------------------------------
Number of tracks: 6Official DR value: DR6
Samplerate: 44100 HzChannels: 2Bits per sample: 16Bitrate: 898 kbpsCodec: FLAC================================================================================

Лог проверки качества

-----------------------
DON'T MODIFY THIS FILE
-----------------------
PERFORMER: auCDtect Task Manager, ver. 1.6.0 RC1 build 1.6.0.1Copyright (c) 2008-2010 y-soft. All rights reservedhttp://y-soft.org
ANALYZER: auCDtect: CD records authenticity detector, version 0.8.2Copyright (c) 2004 Oleg Berngardt. All rights reserved.Copyright (c) 2004 Alexander Djourik. All rights reserved.
FILE: 01 - Svarmod.flac Size: 25045074 Hash: 325EFF9F01F62DAFD5AD4337CE0CC296 Accuracy: -m0 Conclusion: CDDA 100% Signature: 5E1AAA779B332A5C33570F965302308E31DC56A8FILE: 02 - Vemod.flac Size: 26414483 Hash: 677AB2C10F7332C85419D0F5BCEE69EC Accuracy: -m0 Conclusion: CDDA 100% Signature: E239F95A9FD947EDCD493B40CA5DAFF2BB83641CFILE: 03 - Translated Slaughter.flac Size: 80829247 Hash: D70ADFB93EE4F57451C69EA7E4BAF66B Accuracy: -m0 Conclusion: CDDA 100% Signature: F7C2129CE446C3B74F5F5D905FA0BA155158DF1CFILE: 04 - Don't Wait.flac Size: 95059578 Hash: E1C34E6FE28C7B4E7255F58A9E9E2BFD Accuracy: -m0 Conclusion: CDDA 100% Signature: 020DBB65B04411613633554188EFC08EBD930F33FILE: 05 - Rich and Poor.flac Size: 4952890 Hash: 37CFF5DFEFBFF6499F2B7A2E0660409E Accuracy: -m0 Conclusion: CDDA 100% Signature: AA29CCB2D02DA0B577D782B550B9F2BB702E88CFFILE: 06 - Both Sides Out.flac Size: 39502191 Hash: AAE901969EE7AC874CBDA8F3C6F4003D Accuracy: -m0 Conclusion: CDDA 99% Signature: 47224FBC88DD19AB317B3D7ED9281247E5EDB4D6

Об альбоме (сборнике)

Recorded jan 14/15 2018 at Duper Studios, Bergen
Sound Engineer Jørgen Træn
Mixed Feb 2018 at Duper Studios, Bergen by Jørgen Træn, Kjetil Møster, Anders Hana
Mastered Feb 2018 at Duper Studios by Jørgen Træn
Produced by TheEnd
released June 29, 2018

Состав

- SOFIA JERNBERG / VOICE
- MATS GUSTAFSSON / BARITONE AND TENOR SAX, LIVE ELECTRONICS
- KJETIL MØSTER / BARITONE AND TENOR SAX, ELECTRONICS
- ANDERS HANA / BARITONE GUITAR
- GREG SAUNIER / DRUMS AND VOICE


[torrentc.info]_t_5582500.torrent
Торрент: Зарегистрирован ·  [ 2018-07-06 22:14 ] ·  808f236f331608f3b8445f648574554cb8723f8b

11 KB

Статус: проверено
Скачан: 0 раз
Размер: 260 MB
Оценка: 
(Голосов: 0)
Сказали спасибо: 0  Спасибо
Похожие темы
[Профиль]    [ЛС]
Показать сообщения:    
Ответить на тему

Текущее время: Сегодня 21:02

Часовой пояс: GMT + 7



Вы не можете начинать темы
Вы не можете отвечать на сообщения
Вы не можете редактировать свои сообщения
Вы не можете удалять свои сообщения
Вы не можете голосовать в опросах
Вы не можете прикреплять файлы к сообщениям
Вы можете скачивать файлы