[TR24][OF] Silent Universe - The Infinity Coordinates - 2017 (Dark Ambient | Space Ambient)

Ответить на тему
Статистика раздачи [Обновить пиров]
Размер:  253 MB   |    Зарегистрирован:  2 месяца 29 дней   |    Скачан:  0 раз

Полного источника не было: Никогда

 
   
 
 
 
Автор Сообщение

torrentc.info

Создавать темы 23-Июн-2018 06:37

[Цитировать]

Silent Universe - The Infinity Coordinates
✵✵✵✵✵✵✵✵✵✵✵✵✵✵✵✵✵✵✵✵✵✵✵


• Формат файла записи | Источник записи: [TR24][OF]
• Наличие водяных знаков: Нет
• Страна-производитель релиза: USA (Oregon)
• Страна исполнителя: Беларусь
• Год издания | переиздания диска: 2017
• Жанр: Dark Ambient | Space Ambient
• Издатель (лейбл): Cryo Chamber
• Продолжительность: 00:55:26
• Источник, релизер: NTDMMANIAC ®
• WEB bandcamp
• Формат файла: FLAC (*.flac)
• Тип рипа: tracks
• Разрядность: 24/44,1, 16/44,1
• Формат файла: WAV (flac.ape.wv)
• Количество каналов: 2.0
• Наличие сканов: front


01 - Spiral Space (00:07:25)
02 - Emptiness of Other Worlds (00:08:35)
03 - Fractal Essence of the Universe (00:12:46)
04 - Pulsar (00:10:37)
05 - In Cosmic Microwave Background (00:16:00)
-

битовая глубина/частота дискретизации по трекам

01 - Spiral Space (00:07:25) -16/44,1
02 - Emptiness of Other Worlds (00:08:35) - 16/44,1
03 - Fractal Essence of the Universe (00:12:46) - 16/44,1
04 - Pulsar (00:10:37) - 16/44,1
05 - In Cosmic Microwave Background (00:16:00) - 24/44,1

Замер динамического диапазона (DR)

foobar2000 1.2.5 / Замер динамического диапазона (DR) 1.1.1
Дата отчёта: 2018-04-10 18:44:56
--------------------------------------------------------------------------------
Анализ: Silent Universe / The Infinity Coordinates
--------------------------------------------------------------------------------
DR Пики RMS Продолжительность трека
--------------------------------------------------------------------------------
DR9 -0.25 дБ -11.92 дБ 7:26 01-Spiral Space
DR6 -0.25 дБ -8.10 дБ 8:35 02-Emptiness of Other Worlds
DR8 -0.25 дБ -10.77 дБ 12:47 03-Fractal Essence of the Universe
DR7 -0.25 дБ -10.30 дБ 10:38 04-Pulsar
--------------------------------------------------------------------------------
Количество треков: 4
Реальные значения DR: DR8
Частота: 44100 Гц
Каналов: 2
Разрядность: 16
Битрейт: 440 кбит/с
Кодек: FLAC
================================================================================
--------------------------------------------------------------------------------
Статистика для: 05-In Cosmic Microwave Background
Количество сэмплов: 42376876
Продолжительность: 16:01
--------------------------------------------------------------------------------
Левый Правый
Пики: -0.25 дБ --- -0.25 дБ
Средний RMS: -11.00 дБ --- -10.29 дБ
DR канала: 8.28 дБ --- 7.81 дБ
--------------------------------------------------------------------------------
Реальные значения DR: DR8
Частота: 44100 Гц
Каналов: 2
Разрядность: 24
Битрейт: 1053 кбит/с
Кодек: FLAC
================================================================================
-

лог проверки треков 16/44,1


-----------------------
DON'T MODIFY THIS FILE
-----------------------
PERFORMER: auCDtect Task Manager, ver. 1.6.0 RC1 build 1.6.0.1
Copyright (c) 2008-2010 y-soft. All rights reserved
http://y-soft.org
ANALYZER: auCDtect: CD records authenticity detector, version 0.8.2
Copyright (c) 2004 Oleg Berngardt. All rights reserved.
Copyright (c) 2004 Alexander Djourik. All rights reserved.
FILE: 03 - Fractal Essence of the Universe.flac
Size: 46055616 Hash: 8B014FEE7E158CCE0070B29FF5DC81C9 Accuracy: -m0
Conclusion: CDDA 100%
Signature: C93042A289B67BCDE646BED168779ABCD9181013
FILE: 02 - Emptiness of Other Worlds.flac
Size: 29620579 Hash: 3CA3123547F0D8DFE2D8302E70581900 Accuracy: -m0
Conclusion: CDDA 100%
Signature: 10B6F3A05374E5ED5EA69232CB0B54EF0250C76B
FILE: 01 - Spiral Space.flac
Size: 24854214 Hash: 11250BA807F5E2650B9248982921322F Accuracy: -m0
Conclusion: CDDA 100%
Signature: 02A5F7AB0EC9CC8F477B8F7EA57A46DC08596222
FILE: 04 - Pulsar.flac
Size: 35202970 Hash: 365208C9B6C4E9B6600E166CDEE03F38 Accuracy: -m0
Conclusion: CDDA 100%
Signature: 5FAC1C960E1B1D155243AB517E5621480F832CA5
-

Скриншот спектра частот

--


[torrentc.info]_t_5577405.torrent
Торрент: Зарегистрирован ·  [ 2018-06-23 06:37 ] ·  324e3908d7f9c52835d20afc314217aa9c035eb7

21 KB

Статус: проверено
Скачан: 0 раз
Размер: 253 MB
Оценка: 
(Голосов: 0)
Сказали спасибо: 0  Спасибо
Похожие темы
[Профиль]    [ЛС]
Показать сообщения:    
Ответить на тему

Текущее время: Сегодня 06:56

Часовой пояс: GMT + 7



Вы не можете начинать темы
Вы не можете отвечать на сообщения
Вы не можете редактировать свои сообщения
Вы не можете удалять свои сообщения
Вы не можете голосовать в опросах
Вы не можете прикреплять файлы к сообщениям
Вы можете скачивать файлы