[TR24][OF] Dead Melodies - Legends of the Wood - 2017 (Dark Ambient)

Ответить на тему
Статистика раздачи [Обновить пиров]
Размер:  444 MB   |    Зарегистрирован:  3 месяца   |    Скачан:  0 раз

Полного источника не было: Никогда

 
   
 
 
 
Автор Сообщение

torrentc.info

Создавать темы 23-Июн-2018 05:19

[Цитировать]

Dead Melodies - Legends of the Wood
✹✹✹✹✹✹✹✹✹✹✹✹✹✹✹✹✹✹✹✹✹✹


• Формат файла записи | Источник записи: [TR24][OF]
• Наличие водяных знаков: Нет
• Страна-производитель релиза: USA (Oregon)
• Страна исполнителя: UK
• Год издания релиза: 2017
• Жанр: Dark Ambient
• Издатель (лейбл): Cryo Chamber
• Продолжительность: 00:47:45
• Источник, релизер: NTDMMANIAC ®
• WEB bandcamp
• Формат файла: FLAC (*.flac)
• Тип рипа: tracks
• Разрядность: 24/44,1
• Формат файла: WAV (flac.ape.wv)
• Количество каналов: 2.0
• Наличие сканов: front

01 - A Trial of Crows and Blood (00:06:53)
02 - On Devil's Hill (00:04:43)
03 - The Hooded Nine (00:06:57)
04 - Peach Black Descent (00:06:02)
05 - Unearthed (00:04:03)
06 - A Malevolent Rising (00:04:53)
07 - Wretched Masquerade (00:06:52)
08 - Beautiful Coalesce (00:07:18)
-

• Замер динамического диапазона •


foobar2000 1.2.5 / Замер динамического диапазона (DR) 1.1.1
Дата отчёта: 2017-06-12 18:19:25
--------------------------------------------------------------------------------
Анализ: Dead Melodies / Legends of the Wood
--------------------------------------------------------------------------------
DR Пики RMS Продолжительность трека
--------------------------------------------------------------------------------
DR9 0.00 дБ -13.05 дБ 6:54 01-A Trial of Crows and Blood
DR9 0.00 дБ -12.83 дБ 4:43 02-On Devil's Hill
DR9 0.00 дБ -11.88 дБ 6:57 03-The Hooded Nine
DR7 0.00 дБ -10.37 дБ 6:03 04-Peach Black Descent
DR10 -0.31 дБ -14.84 дБ 4:04 05-Unearthed
DR10 0.00 дБ -15.76 дБ 4:54 06-A Malevolent Rising
DR10 0.00 дБ -12.14 дБ 6:52 07-Wretched Masquerade
DR9 0.00 дБ -11.14 дБ 7:18 08-Beautiful Coalesce
--------------------------------------------------------------------------------
Количество треков: 8
Реальные значения DR: DR9
Частота: 44100 Гц
Каналов: 2
Разрядность: 24
Битрейт: 1411 кбит/с
Кодек: FLAC
================================================================================
--• Information •Dead Melodies (UK) releases his Cryo Chamber debut with Legends of the Wood. A melancholic journey on the isle of mist.
The hearth warms your bones as you peer out the crosshatch window. The damp morning dew forms translucent drops on the knee high grass. Whatever was out there last night seems gone but the birds are not yet singing and the animals still hiding. You pull your trekking boots on and head out the gnarled door, leaving the heat of the lonely cabin behind.
Save the faint caw of a crow from up in the canopy, the forest lay silent; Devil's Hill looms in the distance. Through crooked trees you go as the headache hits you and flashes from last night come flooding back; Hooded figures. Blood. The sacrifice! Through clenched teeth you gaze down at the compass in your hand. The needle spinning faster and faster. Anxiously, you look back for the cabin, but it's gone. Gone! Devil's Hill dominates where it once stood, only one way to go.
Lush field recordings, detailed soundscapes and melancholic melodies drench this album in atmosphere. For lovers of high fidelity dark ambient.
Available in 24 bit FLAC
released May 16, 2017
Written, Produced, Performed - Tom Moore
Artwork & Mastering - Simon Heath
--

• Скриншот спектра частот •

--


[torrentc.info]_t_5577514.torrent
Торрент: Зарегистрирован ·  [ 2018-06-23 05:19 ] ·  ed059cd4c4e4b3193c4e9a4d1ce2257d8adf4334

18 KB

Статус: проверено
Скачан: 0 раз
Размер: 444 MB
Оценка: 
(Голосов: 0)
Сказали спасибо: 0  Спасибо
Похожие темы
[Профиль]    [ЛС]
Показать сообщения:    
Ответить на тему

Текущее время: Сегодня 13:36

Часовой пояс: GMT + 7



Вы не можете начинать темы
Вы не можете отвечать на сообщения
Вы не можете редактировать свои сообщения
Вы не можете удалять свои сообщения
Вы не можете голосовать в опросах
Вы не можете прикреплять файлы к сообщениям
Вы можете скачивать файлы