[TR24][OF] ProtoU & Hilyard - Alpine Respire - 2017 (Dark Ambient)

Ответить на тему
Статистика раздачи [Обновить пиров]
Размер:  506 MB   |    Зарегистрирован:  28 дней   |    Скачан:  0 раз

Полного источника не было: Никогда

 
   
 
 
 
Автор Сообщение

torrentc.info

Создавать темы 23-Июн-2018 05:19

[Цитировать]

ProtoU & Hilyard - Alpine Respire
✵✵✵✵✵✵✵✵✵✵✵✵✵✵✵✵✵✵✵✵✵✵


• Формат файла записи | Источник записи: [TR24][OF]
• Наличие водяных знаков: Нет
• Страна-производитель релиза: USA (Oregon)
• Страна исполнителя: Ukraine & USA
• Год издания релиза: 2017
• Жанр: Dark Ambient
• Издатель (лейбл): Cryo Chamber
• Продолжительность: 00:51:15
• Источник, релизер: NTDMMANIAC ®
• WEB bandcamp
• Формат файла: FLAC (*.flac)
• Тип рипа: tracks
• Разрядность: 24/44,1
• Формат файла: WAV (flac.ape.wv)
• Количество каналов: 2.0
• Наличие сканов: front

01 - Alpine Respire (00:09:00)
02 - Blood Grass Sojourn (00:12:12)
03 - Cave Lights on the Bay of Bengal (00:07:03)
04 - Boreal Distillate (00:07:00)
05 - Final Refugium (00:08:50)
06 - Elwha Snowfinger (00:07:08)
-

• Замер динамического диапазона •


foobar2000 1.2.5 / Замер динамического диапазона (DR) 1.1.1
Дата отчёта: 2017-08-03 11:23:10
--------------------------------------------------------------------------------
Анализ: ProtoU & Hilyard / Alpine Respire
--------------------------------------------------------------------------------
DR Пики RMS Продолжительность трека
--------------------------------------------------------------------------------
DR8 0.00 дБ -10.63 дБ 9:01 01-Alpine Respire
DR11 0.00 дБ -12.93 дБ 12:12 02-Blood Grass Sojourn
DR10 0.00 дБ -12.37 дБ 7:03 03-Cave Lights on the Bay of Bengal
DR9 0.00 дБ -10.27 дБ 7:00 04-Boreal Distillate
DR9 0.00 дБ -10.56 дБ 8:51 05-Final Refugium
DR9 0.00 дБ -10.46 дБ 7:09 06-Elwha Snowfinger
--------------------------------------------------------------------------------
Количество треков: 6
Реальные значения DR: DR10
Частота: 44100 Гц
Каналов: 2
Разрядность: 24
Битрейт: 1128 кбит/с
Кодек: FLAC
================================================================================
--• Information •ProtoU (Ukraine) and Hilyard (Maine, US) group up in this field recording heavy collaboration.
Alpine Respire immerses you in field recordings from two continents. Warm drone contrasts raindrops and the call of animals in the wild. This damp album invites you to explore the unreachable corners of the Earth. From the harshest mountains to the darkest forests.
Recommended for fans of Field Recording and slowly progressing drone.
Available in 24 bit
released July 25, 2017
Written, Produced, Performed - Sasha Cats & Bryan Hilyard
Artwork & Mastering - Simon Heath
--

• Скриншот спектра частот •

--


[torrentc.info]_t_5577521.torrent
Торрент: Зарегистрирован ·  [ 2018-06-23 05:19 ] ·  80a269c71e4c59abcd57a564fda9218a54e1b832

21 KB

Статус: проверено
Скачан: 0 раз
Размер: 506 MB
Оценка: 
(Голосов: 0)
Сказали спасибо: 0  Спасибо
Похожие темы
[Профиль]    [ЛС]
Показать сообщения:    
Ответить на тему

Текущее время: Сегодня 22:27

Часовой пояс: GMT + 7



Вы не можете начинать темы
Вы не можете отвечать на сообщения
Вы не можете редактировать свои сообщения
Вы не можете удалять свои сообщения
Вы не можете голосовать в опросах
Вы не можете прикреплять файлы к сообщениям
Вы можете скачивать файлы