[TR24][OF] Fairport Convention - Live In Finland 1971 - 2016 (Folk-Rock)

Ответить на тему
Статистика раздачи [Обновить пиров]
Размер:  412 MB   |    Зарегистрирован:  3 месяца   |    Скачан:  0 раз

Полного источника не было: Никогда

 
   
 
 
 
Автор Сообщение

torrentc.info

Создавать темы 23-Июн-2018 05:19

[Цитировать]

Fairport Convention - Live In Finland 1971 Формат файла записи/Источник записи: [TR24][OF]
Наличие водяных знаков: Нет
Год издания/переиздания диска: 2016
Жанр: Folk-Rock
Издатель (лейбл): Real Gone Music
Продолжительность: 35:15
Наличие сканов в содержимом раздачи: Только обложка альбома
Источник: WRZmusic
Магазин: qobuz.com
Треклист:
01. Bridge Over The River Ash (2:24)
02. The Journeyman's Grace (5:33)
03. Mason's Apron (6:24)
04. Sir Patrick Spens (3:19)
05. Matty Groves (8:03)
06. Sir B. McKenzie's Daughter's Grace (4:47)
07. Sir William Gower (4:46)-Формат файла: FLAC (*.flac)
Тип рипа: tracks
Разрядность: 24/44,1
Формат файла: PCM
Количество каналов: 2.0

Лог проверки качества

foobar2000 1.3.9 / Dynamic Range Meter 1.1.1log date: 2018-06-22 10:02:47
--------------------------------------------------------------------------------Analyzed: Fairport Convention / Live In Finland 1971--------------------------------------------------------------------------------
DR Peak RMS Duration Track--------------------------------------------------------------------------------DR11 -0.70 dB -14.78 dB 2:24 01-Bridge Over The River AshDR10 -0.70 dB -11.89 dB 5:33 02-The Journeyman's GraceDR10 -0.70 dB -11.69 dB 6:24 03-Mason's ApronDR10 -0.70 dB -12.17 dB 3:19 04-Sir Patrick SpensDR9 -0.70 dB -11.49 dB 8:03 05-Matty GrovesDR10 -0.70 dB -11.85 dB 4:47 06-Sir B. McKenzie's Daughter's GraceDR11 -0.70 dB -12.53 dB 4:46 07-Sir William Gower--------------------------------------------------------------------------------
Number of tracks: 7Official DR value: DR10
Samplerate: 44100 HzChannels: 2Bits per sample: 24Bitrate: 1526 kbpsCodec: FLAC================================================================================
 


[torrentc.info]_t_5577837.torrent
Торрент: Зарегистрирован ·  [ 2018-06-23 05:19 ] ·  82eb90bb4881bc00f5b0cf35f8f327dc401264df

17 KB

Статус: проверено
Скачан: 0 раз
Размер: 412 MB
Оценка: 
(Голосов: 0)
Сказали спасибо: 0  Спасибо
Похожие темы
[Профиль]    [ЛС]
Показать сообщения:    
Ответить на тему

Текущее время: Сегодня 14:03

Часовой пояс: GMT + 7



Вы не можете начинать темы
Вы не можете отвечать на сообщения
Вы не можете редактировать свои сообщения
Вы не можете удалять свои сообщения
Вы не можете голосовать в опросах
Вы не можете прикреплять файлы к сообщениям
Вы можете скачивать файлы