(Instrumental Rock | Surf Rock) [CD] The Ventures - The Ventures Best Hit Collection 30 (Japanese Edition) - 2018, FLAC (image+.cue), lossless

Ответить на тему
Статистика раздачи [Обновить пиров]
Размер:  467 MB   |    Зарегистрирован:  3 месяца   |    Скачан:  0 раз

Полного источника не было: Никогда

 
   
 
 
 
Автор Сообщение

torrentc.info

Создавать темы 21-Июн-2018 23:41

[Цитировать]

The Ventures / The Ventures Best Hit Collection 30

Жанр: Instrumental Rock | Surf Rock | Носитель: CD | Страна-производитель диска (релиза): Japan | Год издания: 2018 | Издатель (лейбл): Teichiku Records | Номер по каталогу: TECI-21724 | Особенность релиза: SHM-CD, Remastered, Compilation | Страна исполнителя (группы): Tacoma, Washington, United States | Аудиокодек: FLAC (*.flac) | Тип рипа: image+.cue | Битрейт аудио: lossless | Продолжительность: 01:14:49 | Источник (релизер): HaRD | Наличие сканов в содержимом раздачи: Scans Included (300 dpi)

Американская музыкальная группа, играющая инструментальный рок и сёрф-рок. Основана в 1958 году в городе Такома, штат Вашингтон, основателями группы являются музыканты Дон Вилсон и Боб Богл. Экспериментируя со стилями, со временем группа оказала огромнейшее влияние на развитие музыки во всём мире. The Ventures входит в список групп-бестселлеров, в мире на настоящий момент продано свыше 100 миллионов пластинок. В 2008 году группа включена в Зал славы рок-н-ролла.

Треклист

01. Walk Don't Run (2:09)02. Memphis (2:31)03. Rebel Rouser (2:44)04. Apache (3:02)05. Bulldog (2:23)06. Pipeline (2:24)07. Telstar (2:38)08. Hawaii Five O (1:48)09. Tequila (2:48)10. Wheels (2:01)11. Bumble Bee Rock (2:30)12. Slaughter On 10th Avenue (2:04)13. Ghost Riders In The Sky (2:38)14. Perfidia (2:07)15. Let's Go (2:37)16. Green Onions (2:24)17. Raunchy (2:45)18. House Of The Rising Sun (4:24)19. Rock Nuts (2:08)20. Walk Don't Run '64 (2:22)21. Wipe Out (4:02)22. Secret Agent Man (2:03)23. Guitar Boogie Shuffle (2:34)24. Caravan (2:47)25. Diamond Head (2:04)26. The Cruel Sea (2:28)27. Yellow Jacket (2:34)28. Ram Bunk Snush (I Ain't Got No money) (1:45)29. Driving Guitars (1:55)30. Sleepwalk (2:09)

Лог создания рипа

Exact Audio Copy V1.1 from 23. June 2015
EAC extraction logfile from 16. June 2018, 21:43
The Ventures / The Ventures Best Hit Collection 30
Used drive : TSSTcorpDVDWBD SH-B123L Adapter: 0 ID: 4
Read mode : SecureUtilize accurate stream : YesDefeat audio cache : YesMake use of C2 pointers : No
Read offset correction : 6Overread into Lead-In and Lead-Out : NoFill up missing offset samples with silence : YesDelete leading and trailing silent blocks : NoNull samples used in CRC calculations : YesUsed interface : Installed external ASPI interface
Used output format : User Defined EncoderSelected bitrate : 768 kBit/sQuality : HighAdd ID3 tag : NoCommand line compressor : C:\Program Files (x86)\Exact Audio Copy\FLAC\FLAC.EXEAdditional command line options : -6 -V -T "ARTIST=%artist%" -T "TITLE=%title%" -T "ALBUM=%albumtitle%" -T "DATE=%year%" -T "TRACKNUMBER=%tracknr%" -T "GENRE=%genre%" -T "COMMENT=%comment%" -T "BAND=%albuminterpret%" -T "ALBUMARTIST=%albuminterpret%" -T "COMPOSER=%composer%" %haslyrics%--tag-from-file=LYRICS="%lyricsfile%"%haslyrics% -T "DISCNUMBER=%cdnumber%" -T "TOTALDISCS=%totalcds%" -T "TOTALTRACKS=%numtracks%" %hascover%--picture="%coverfile%"%hascover% %source% -o %dest%
TOC of the extracted CD
Track | Start | Length | Start sector | End sector --------------------------------------------------------- 1 | 0:00.00 | 2:09.03 | 0 | 9677 2 | 2:09.03 | 2:31.16 | 9678 | 21018 3 | 4:40.19 | 2:43.61 | 21019 | 33304 4 | 7:24.05 | 3:02.09 | 33305 | 46963 5 | 10:26.14 | 2:22.69 | 46964 | 57682 6 | 12:49.08 | 2:23.48 | 57683 | 68455 7 | 15:12.56 | 2:37.65 | 68456 | 80295 8 | 17:50.46 | 1:48.09 | 80296 | 88404 9 | 19:38.55 | 2:47.54 | 88405 | 100983 10 | 22:26.34 | 2:01.13 | 100984 | 110071 11 | 24:27.47 | 2:30.00 | 110072 | 121321 12 | 26:57.47 | 2:04.08 | 121322 | 130629 13 | 29:01.55 | 2:38.25 | 130630 | 142504 14 | 31:40.05 | 2:06.63 | 142505 | 152017 15 | 33:46.68 | 2:37.11 | 152018 | 163803 16 | 36:24.04 | 2:24.20 | 163804 | 174623 17 | 38:48.24 | 2:45.19 | 174624 | 187017 18 | 41:33.43 | 4:23.68 | 187018 | 206810 19 | 45:57.36 | 2:07.44 | 206811 | 216379 20 | 48:05.05 | 2:22.29 | 216380 | 227058 21 | 50:27.34 | 4:02.26 | 227059 | 245234 22 | 54:29.60 | 2:03.19 | 245235 | 254478 23 | 56:33.04 | 2:33.56 | 254479 | 266009 24 | 59:06.60 | 2:46.67 | 266010 | 278526 25 | 61:53.52 | 2:03.62 | 278527 | 287813 26 | 63:57.39 | 2:27.56 | 287814 | 298894 27 | 66:25.20 | 2:33.70 | 298895 | 310439 28 | 68:59.15 | 1:44.71 | 310440 | 318310 29 | 70:44.11 | 1:55.02 | 318311 | 326937 30 | 72:39.13 | 2:09.34 | 326938 | 336646
Range status and errors
Selected range
Filename E:\MUSIC\The Ventures - The Ventures Best Hit Collection 30.wav
Peak level 99.7 % Extraction speed 3.9 X Range quality 99.9 % Test CRC 1C326C75 Copy CRC 1C326C75 Copy OK
No errors occurred
AccurateRip summary
Track 1 not present in databaseTrack 2 not present in databaseTrack 3 not present in databaseTrack 4 not present in databaseTrack 5 not present in databaseTrack 6 not present in databaseTrack 7 not present in databaseTrack 8 not present in databaseTrack 9 not present in databaseTrack 10 not present in databaseTrack 11 not present in databaseTrack 12 not present in databaseTrack 13 not present in databaseTrack 14 not present in databaseTrack 15 not present in databaseTrack 16 not present in databaseTrack 17 not present in databaseTrack 18 not present in databaseTrack 19 not present in databaseTrack 20 not present in databaseTrack 21 not present in databaseTrack 22 not present in databaseTrack 23 not present in databaseTrack 24 not present in databaseTrack 25 not present in databaseTrack 26 not present in databaseTrack 27 not present in databaseTrack 28 not present in databaseTrack 29 not present in databaseTrack 30 not present in database
None of the tracks are present in the AccurateRip database
End of status report
==== Log checksum 51BF7A7F5BCACA87AC06C3C9014D026BF8F6976C5F21EE5C21F7C89BFDF5B0F9 ====

Содержание индексной карты (.CUE)

REM GENRE SurfREM DATE 2018REM DISCID C911881EREM COMMENT "ExactAudioCopy v1.1"PERFORMER "The Ventures"TITLE "The Ventures Best Hit Collection 30"FILE "The Ventures - The Ventures Best Hit Collection 30.flac" WAVE TRACK 01 AUDIO TITLE "Walk Don't Run" PERFORMER "The Ventures" INDEX 01 00:00:00 TRACK 02 AUDIO TITLE "Memphis" PERFORMER "The Ventures" INDEX 00 02:07:72 INDEX 01 02:09:03 TRACK 03 AUDIO TITLE "Rebel Rouser" PERFORMER "The Ventures" INDEX 00 04:39:06 INDEX 01 04:40:19 TRACK 04 AUDIO TITLE "Apache" PERFORMER "The Ventures" INDEX 00 07:22:32 INDEX 01 07:24:05 TRACK 05 AUDIO TITLE "Bulldog" PERFORMER "The Ventures" INDEX 00 10:24:53 INDEX 01 10:26:14 TRACK 06 AUDIO TITLE "Pipeline" PERFORMER "The Ventures" INDEX 00 12:47:71 INDEX 01 12:49:08 TRACK 07 AUDIO TITLE "Telstar" PERFORMER "The Ventures" INDEX 00 15:11:44 INDEX 01 15:12:56 TRACK 08 AUDIO TITLE "Hawaii Five O" PERFORMER "The Ventures" INDEX 00 17:49:14 INDEX 01 17:50:46 TRACK 09 AUDIO TITLE "Tequila" PERFORMER "The Ventures" INDEX 00 19:37:22 INDEX 01 19:38:55 TRACK 10 AUDIO TITLE "Wheels" PERFORMER "The Ventures" INDEX 00 22:24:74 INDEX 01 22:26:34 TRACK 11 AUDIO TITLE "Bumble Bee Rock" PERFORMER "The Ventures" INDEX 00 24:26:28 INDEX 01 24:27:47 TRACK 12 AUDIO TITLE "Slaughter On 10th Avenue" PERFORMER "The Ventures" INDEX 00 26:56:37 INDEX 01 26:57:47 TRACK 13 AUDIO TITLE "Ghost Riders In The Sky" PERFORMER "The Ventures" INDEX 00 29:00:26 INDEX 01 29:01:55 TRACK 14 AUDIO TITLE "Perfidia" PERFORMER "The Ventures" INDEX 00 31:38:64 INDEX 01 31:40:05 TRACK 15 AUDIO TITLE "Let's Go" PERFORMER "The Ventures" INDEX 00 33:45:26 INDEX 01 33:46:68 TRACK 16 AUDIO TITLE "Green Onions" PERFORMER "The Ventures" INDEX 00 36:22:52 INDEX 01 36:24:04 TRACK 17 AUDIO TITLE "Raunchy" PERFORMER "The Ventures" INDEX 00 38:47:12 INDEX 01 38:48:24 TRACK 18 AUDIO TITLE "House Of The Rising Sun" PERFORMER "The Ventures" INDEX 00 41:32:02 INDEX 01 41:33:43 TRACK 19 AUDIO TITLE "Rock Nuts" PERFORMER "The Ventures" INDEX 00 45:56:18 INDEX 01 45:57:36 TRACK 20 AUDIO TITLE "Walk Don't Run '64" PERFORMER "The Ventures" INDEX 00 48:03:73 INDEX 01 48:05:05 TRACK 21 AUDIO TITLE "Wipe Out" PERFORMER "The Ventures" INDEX 00 50:26:14 INDEX 01 50:27:34 TRACK 22 AUDIO TITLE "Secret Agent Man" PERFORMER "The Ventures" INDEX 00 54:28:46 INDEX 01 54:29:60 TRACK 23 AUDIO TITLE "Guitar Boogie Shuffle" PERFORMER "The Ventures" INDEX 00 56:31:53 INDEX 01 56:33:04 TRACK 24 AUDIO TITLE "Caravan" PERFORMER "The Ventures" INDEX 00 59:05:38 INDEX 01 59:06:60 TRACK 25 AUDIO TITLE "Diamond Head" PERFORMER "The Ventures" INDEX 00 61:52:20 INDEX 01 61:53:52 TRACK 26 AUDIO TITLE "The Cruel Sea" PERFORMER "The Ventures" INDEX 00 63:56:33 INDEX 01 63:57:39 TRACK 27 AUDIO TITLE "Yellow Jacket" PERFORMER "The Ventures" INDEX 00 66:23:51 INDEX 01 66:25:20 TRACK 28 AUDIO TITLE "Ram Bunk Snush (I Ain't Got No money)" PERFORMER "The Ventures" INDEX 00 68:57:46 INDEX 01 68:59:15 TRACK 29 AUDIO TITLE "Driving Guitars" PERFORMER "The Ventures" INDEX 00 70:42:42 INDEX 01 70:44:11 TRACK 30 AUDIO TITLE "Sleepwalk" PERFORMER "The Ventures" INDEX 00 72:37:54 INDEX 01 72:39:13

Лог проверки качества

-----------------------
DON'T MODIFY THIS FILE
-----------------------
PERFORMER: auCDtect Task Manager, ver. 1.6.0 RC1 build 1.6.0.1Copyright (c) 2008-2010 y-soft. All rights reservedhttp://y-soft.org
ANALYZER: auCDtect: CD records authenticity detector, version 0.8.2Copyright (c) 2004 Oleg Berngardt. All rights reserved.Copyright (c) 2004 Alexander Djourik. All rights reserved.
FILE: The Ventures - The Ventures Best Hit Collection 30.flac Size: 478637403 Hash: 6D85FA6521D88E5F2ABEC0217FA17042 Accuracy: -m0 Conclusion: MPEG 95% Signature: D2F8F9808B1D689CB30148D58D09239A94781344

Замер динамического диапазона (DR)

foobar2000 1.3.9 / Dynamic Range Meter 1.1.1log date: 2018-06-20 20:11:37
--------------------------------------------------------------------------------Analyzed: The Ventures / The Ventures Best Hit Collection 30--------------------------------------------------------------------------------
DR Peak RMS Duration Track--------------------------------------------------------------------------------DR9 -0.02 dB -10.03 dB 2:09 1-Walk Don't RunDR8 -0.02 dB -9.33 dB 2:31 2-MemphisDR9 -0.02 dB -10.64 dB 2:44 3-Rebel RouserDR8 -0.02 dB -9.63 dB 3:02 4-ApacheDR8 -0.02 dB -9.61 dB 2:23 5-BulldogDR9 -0.02 dB -10.60 dB 2:24 6-PipelineDR9 -0.02 dB -10.00 dB 2:38 7-TelstarDR9 -0.02 dB -10.00 dB 1:48 8-Hawaii Five ODR10 -0.02 dB -11.07 dB 2:48 9-TequilaDR10 -0.02 dB -11.14 dB 2:01 10-WheelsDR9 -0.02 dB -10.45 dB 2:30 11-Bumble Bee RockDR8 -0.02 dB -9.92 dB 2:04 12-Slaughter On 10th AvenueDR10 -0.02 dB -11.83 dB 2:38 13-Ghost Riders In The SkyDR10 -0.02 dB -11.20 dB 2:07 14-PerfidiaDR9 -0.02 dB -10.45 dB 2:37 15-Let's GoDR9 -0.02 dB -11.18 dB 2:24 16-Green OnionsDR9 -0.02 dB -10.51 dB 2:45 17-RaunchyDR9 -0.02 dB -10.47 dB 4:24 18-House Of The Rising SunDR10 -0.02 dB -10.94 dB 2:08 19-Rock NutsDR10 -0.02 dB -13.92 dB 2:22 20-Walk Don't Run '64DR11 -0.02 dB -12.54 dB 4:02 21-Wipe OutDR10 -0.02 dB -11.29 dB 2:03 22-Secret Agent ManDR10 -0.02 dB -11.67 dB 2:34 23-Guitar Boogie ShuffleDR10 -0.02 dB -11.73 dB 2:47 24-CaravanDR9 -0.02 dB -11.63 dB 2:04 25-Diamond HeadDR9 -0.34 dB -10.11 dB 2:28 26-The Cruel SeaDR9 -0.30 dB -10.03 dB 2:34 27-Yellow JacketDR10 -0.02 dB -11.32 dB 1:45 28-Ram Bunk Snush (I Ain't Got No money)DR11 -0.02 dB -12.49 dB 1:55 29-Driving GuitarsDR9 -0.02 dB -11.08 dB 2:09 30-Sleepwalk--------------------------------------------------------------------------------
Number of tracks: 30Official DR value: DR9
Samplerate: 44100 HzChannels: 2Bits per sample: 16Bitrate: 853 kbpsCodec: FLAC================================================================================

Скриншот спектра частот

[img]https://a.radikal.ru/a07/1806/66/296be9e58380t.jpg[/img]


[torrentc.info]_t_5577209.torrent
Торрент: Зарегистрирован ·  [ 2018-06-21 23:41 ] ·  638c9db41aaafab423d352ce52ef0931b6276c39

20 KB

Статус: проверено
Скачан: 0 раз
Размер: 467 MB
Оценка: 
(Голосов: 0)
Сказали спасибо: 0  Спасибо
Похожие темы
[Профиль]    [ЛС]
Показать сообщения:    
Ответить на тему

Текущее время: Сегодня 06:31

Часовой пояс: GMT + 7



Вы не можете начинать темы
Вы не можете отвечать на сообщения
Вы не можете редактировать свои сообщения
Вы не можете удалять свои сообщения
Вы не можете голосовать в опросах
Вы не можете прикреплять файлы к сообщениям
Вы можете скачивать файлы