(Rock, Heavy Metal) [CD] Iron Maiden - Piece Of Mind / Single Collection 1 - 2000, FLAC (image+.cue), lossless

Ответить на тему
Статистика раздачи [Обновить пиров]
Размер:  563 MB   |    Зарегистрирован:  3 месяца 26 дней   |    Скачан:  0 раз

Полного источника не было: Никогда

 
   
 
 
 
Автор Сообщение

torrentc.info

Создавать темы 21-Июн-2018 21:20

[Цитировать]

.IRON MAIDEN
Piece Of Mind / Single Collection 1
(CD, Compilation, Reissue, Unofficial Release)
Жанр: Rock, Heavy Metal
Носитель: CD
Страна-производитель диска (релиза): Russia
Год издания: 2000
Издатель (лейбл): CD-Maximum
Номер по каталогу: CDM 0700-467
Страна исполнителя (группы): England
Аудиокодек: FLAC (*.flac)
Тип рипа: image+.cue
Битрейт аудио: lossless
Продолжительность: 01:16:49
Источник (релизер): stas64
Наличие сканов в содержимом раздачи: да 600dpi

Треклист

Album - Piece Of Mind 1983 / EMI, Capitol
01. Where Eagles Dare (06:13)
02. Revelations (06:49)
03. Flight of Icarus (03:50)
04. Die With Your Boots On (05:26)
05. The Trooper (04:12)
06. Still Life (04:56)
07. Quest for Fire (03:42)
08. Sun and Steel (03:26)
09. To Tame a Land (07:25)
Compilation - Single Collection 1
10. Sanctuary (03:15)
11. Burning Ambition (02:41)
12. Drifter (live) (06:03)
13. I've Got the Fire (live) (03:12)
14. Twilight Zone (02:35)
15. Women in Uniform (03:10)
16. Invasion (02:39)
17. Phantom of the Opera (live) (07:10)

Лог создания рипа

Exact Audio Copy V1.3 from 2. September 2016
Отчёт EAC об извлечении, выполненном 10. июня 2018, 18:34
Iron Maiden / Piece of Mind - Single Collection 1
Дисковод: PLEXTOR DVDR PX-712A Adapter: 8 ID: 1
Режим чтения : ДостоверностьИспользование точного потока : ДаОтключение кэша аудио : ДаИспользование указателей C2 : Нет
Коррекция смещения при чтении : 30Способность читать области Lead-in и Lead-out : НетЗаполнение пропущенных сэмплов тишиной : ДаУдаление блоков с тишиной в начале и конце : НетПри вычислениях CRC использовались нулевые сэмплы : ДаИнтерфейс : Установленный внешний ASPI-интерфейс
Выходной формат : Пользовательский кодировщикВыбранный битрейт : 128 kBit/sКачество : ВысокийДобавление ID3-тега : НетУтилита сжатия : C:\Program Files\Exact Audio Copy\FLAC\FLAC.EXEДополнительные параметры : -V -8 -T "Genre=%genre%" -T "Artist=%artist%" -T "Title=%title%" -T "Album=%albumtitle%" -T "Date=%year%" -T "Tracknumber=%tracknr%" -T "Comment=%comment%" %source%
TOC извлечённого CD
Трек | Старт | Длительность | Начальный сектор | Конечный сектор --------------------------------------------------------------------- 1 | 0:00.00 | 6:13.30 | 0 | 28004 2 | 6:13.30 | 6:49.00 | 28005 | 58679 3 | 13:02.30 | 3:50.13 | 58680 | 75942 4 | 16:52.43 | 5:26.12 | 75943 | 100404 5 | 22:18.55 | 4:12.09 | 100405 | 119313 6 | 26:30.64 | 4:56.22 | 119314 | 141535 7 | 31:27.11 | 3:42.07 | 141536 | 158192 8 | 35:09.18 | 3:26.64 | 158193 | 173706 9 | 38:36.07 | 7:25.19 | 173707 | 207100 10 | 46:01.26 | 3:15.10 | 207101 | 221735 11 | 49:16.36 | 2:41.44 | 221736 | 233854 12 | 51:58.05 | 6:03.66 | 233855 | 261145 13 | 58:01.71 | 3:12.45 | 261146 | 275590 14 | 61:14.41 | 2:35.48 | 275591 | 287263 15 | 63:50.14 | 3:10.07 | 287264 | 301520 16 | 67:00.21 | 2:39.02 | 301521 | 313447 17 | 69:39.23 | 7:10.32 | 313448 | 345729
Характеристики диапазона извлечения и сообщения об ошибках
Выбранный диапазон
Имя файла I:\MOI_RAZDACI\Iron.Maiden_Piece.of.Mind_Single.Collection.1_2000\Iron.Maiden_Piece.of.Mind_Single.Collection.1_2000\Iron Maiden - Piece of Mind - Single Collection 1.wav
Пиковый уровень 100.0 % Скорость извлечения 14.3 X Качество диапазона 100.0 % CRC теста 51D726D7 CRC копии 51D726D7 Копирование... OK
Ошибок не произошло
AccurateRip: сводка
Трек 1 : извлечено точно (доверие 2) [E6EEFC3C] (AR v2)Трек 2 : извлечено точно (доверие 4) [6E0EA14A] (AR v2)Трек 3 : извлечено точно (доверие 4) [25C067EC] (AR v2)Трек 4 : извлечено точно (доверие 4) [E480F5B4] (AR v2)Трек 5 : извлечено точно (доверие 4) [67D753AA] (AR v2)Трек 6 : извлечено точно (доверие 4) [911D1A18] (AR v2)Трек 7 : извлечено точно (доверие 4) [E8233B92] (AR v2)Трек 8 : извлечено точно (доверие 4) [8394452E] (AR v2)Трек 9 : извлечено точно (доверие 4) [23900328] (AR v2)Трек 10 : извлечено точно (доверие 4) [4B2BCB39] (AR v2)Трек 11 : извлечено точно (доверие 4) [D6543EAF] (AR v2)Трек 12 : извлечено точно (доверие 4) [9ACC6C77] (AR v2)Трек 13 : извлечено точно (доверие 3) [B5A8055A] (AR v2)Трек 14 : извлечено точно (доверие 4) [57321C5C] (AR v2)Трек 15 : извлечено точно (доверие 4) [9069C768] (AR v2)Трек 16 : извлечено точно (доверие 4) [9C2E4C57] (AR v2)Трек 17 : извлечено точно (доверие 3) [70C824F5] (AR v2)
Все треки извлечены точно
Конец отчёта
---- CUETools DB Plugin V2.1.6
[CTDB TOCID: mgTGBOfXY_zbdaa2RlS6LLcu8As-] foundSubmit result: mgTGBOfXY_zbdaa2RlS6LLcu8As- has been confirmedTrack | CTDB Status 1 | (8/9) Accurately ripped 2 | (9/9) Accurately ripped 3 | (9/9) Accurately ripped 4 | (9/9) Accurately ripped 5 | (9/9) Accurately ripped 6 | (9/9) Accurately ripped 7 | (9/9) Accurately ripped 8 | (9/9) Accurately ripped 9 | (9/9) Accurately ripped 10 | (9/9) Accurately ripped 11 | (9/9) Accurately ripped 12 | (9/9) Accurately ripped 13 | (9/9) Accurately ripped 14 | (9/9) Accurately ripped 15 | (9/9) Accurately ripped 16 | (9/9) Accurately ripped 17 | (9/9) Accurately ripped
==== Контрольная сумма отчёта 2F605A9943960654ECAD2D11469C41BA790D6980ACC1B4A7DB2B8DEF7BD0D8E0 ====

Содержание индексной карты (.CUE)

REM GENRE "Heavy Metal"REM DATE 2000REM DISCID EE120111REM COMMENT "ExactAudioCopy v1.3"CATALOG 0000000000000PERFORMER "Iron Maiden"TITLE "Piece of Mind - Single Collection 1"REM COMPOSER ""FILE "Iron Maiden - Piece of Mind - Single Collection 1.flac" WAVE TRACK 01 AUDIO TITLE "Where Eagles Dare" PERFORMER "Iron Maiden" REM COMPOSER "" INDEX 01 00:00:00 TRACK 02 AUDIO TITLE "Revelations" PERFORMER "Iron Maiden" REM COMPOSER "" INDEX 01 06:13:30 TRACK 03 AUDIO TITLE "Flight of Icarus" PERFORMER "Iron Maiden" REM COMPOSER "" INDEX 01 13:02:30 TRACK 04 AUDIO TITLE "Die With Your Boots On" PERFORMER "Iron Maiden" REM COMPOSER "" INDEX 01 16:52:43 TRACK 05 AUDIO TITLE "The Trooper" PERFORMER "Iron Maiden" REM COMPOSER "" INDEX 01 22:18:55 TRACK 06 AUDIO TITLE "Still Life" PERFORMER "Iron Maiden" REM COMPOSER "" INDEX 01 26:30:64 TRACK 07 AUDIO TITLE "Quest for Fire" PERFORMER "Iron Maiden" REM COMPOSER "" INDEX 01 31:27:11 TRACK 08 AUDIO TITLE "Sun and Steel" PERFORMER "Iron Maiden" REM COMPOSER "" INDEX 01 35:09:18 TRACK 09 AUDIO TITLE "To Tame a Land" PERFORMER "Iron Maiden" REM COMPOSER "" INDEX 01 38:36:07 TRACK 10 AUDIO TITLE "Sanctuary" PERFORMER "Iron Maiden" REM COMPOSER "" INDEX 01 46:01:26 TRACK 11 AUDIO TITLE "Burning Ambition" PERFORMER "Iron Maiden" REM COMPOSER "" INDEX 01 49:16:36 TRACK 12 AUDIO TITLE "Drifter (live)" PERFORMER "Iron Maiden" REM COMPOSER "" INDEX 01 51:58:05 TRACK 13 AUDIO TITLE "I've Got the Fire (live)" PERFORMER "Iron Maiden" REM COMPOSER "" INDEX 01 58:01:71 TRACK 14 AUDIO TITLE "Twilight Zone" PERFORMER "Iron Maiden" REM COMPOSER "" INDEX 01 61:14:41 TRACK 15 AUDIO TITLE "Women in Uniform" PERFORMER "Iron Maiden" REM COMPOSER "" INDEX 01 63:50:14 TRACK 16 AUDIO TITLE "Invasion" PERFORMER "Iron Maiden" REM COMPOSER "" INDEX 01 67:00:21 TRACK 17 AUDIO TITLE "Phantom of the Opera (live)" PERFORMER "Iron Maiden" REM COMPOSER "" INDEX 01 69:39:23

Лог проверки качества

-----------------------
DON'T MODIFY THIS FILE
-----------------------
PERFORMER: auCDtect Task Manager, ver. 1.6.0 RC1 build 1.6.0.1Copyright (c) 2008-2010 y-soft. All rights reservedhttp://y-soft.org
ANALYZER: auCDtect: CD records authenticity detector, version 0.8.2Copyright (c) 2004 Oleg Berngardt. All rights reserved.Copyright (c) 2004 Alexander Djourik. All rights reserved.
FILE: Iron Maiden - Piece of Mind - Single Collection 1.flac Size: 536232147 Hash: B29B73A88E36724C15964AEC15268E93 Accuracy: -m0 Conclusion: CDDA 100% Signature: 6AF32C6CF737A032EEE1F40CBEC215DD58DE6988

Скриншот спектра частот



[torrentc.info]_t_5574969.torrent
Торрент: Зарегистрирован ·  [ 2018-06-21 21:15 ] ·  8b35776095ab77e5be52d5a8454be8e944d4fa65

12 KB

Статус: проверено
Скачан: 0 раз
Размер: 563 MB
Оценка: 
(Голосов: 0)
Сказали спасибо: 0  Спасибо
Похожие темы
[Профиль]    [ЛС]
Показать сообщения:    
Ответить на тему

Текущее время: Сегодня 18:51

Часовой пояс: GMT + 7



Вы не можете начинать темы
Вы не можете отвечать на сообщения
Вы не можете редактировать свои сообщения
Вы не можете удалять свои сообщения
Вы не можете голосовать в опросах
Вы не можете прикреплять файлы к сообщениям
Вы можете скачивать файлы