(Rock, Heavy Metal) [CD] Iron Maiden - No Prayer For The Dying / Single Collection 5 - 2000, FLAC (image+.cue), lossless

Ответить на тему
Статистика раздачи [Обновить пиров]
Размер:  581 MB   |    Зарегистрирован:  3 месяца 25 дней   |    Скачан:  0 раз

Полного источника не было: Никогда

 
   
 
 
 
Автор Сообщение

torrentc.info

Создавать темы 21-Июн-2018 21:20

[Цитировать]

.IRON MAIDEN
No Prayer For The Dying / Single Collection 5
(CD, Compilation, Reissue, Unofficial Release).
.
Жанр: Rock, Heavy Metal
Носитель: CD
Страна-производитель диска (релиза): Russia
Год издания: 2000
Издатель (лейбл): CD-Maximum
Номер по каталогу: cdm 0700-471
Страна исполнителя (группы): England
Аудиокодек: FLAC (*.flac)
Тип рипа: image+.cue
Битрейт аудио: lossless
Продолжительность: 01:15:29
Источник (релизер): stas64
Наличие сканов в содержимом раздачи: да 600dpi

Треклист

Album - No Prayer For The Dying 1990 / EMI, Capitol
01. Tailgunner (04:15)
02. Holy Smoke (03:48)]
03. No Prayer For The Dying (04:23)
04. Public Enema Number One (04:13)
05. Fates Warning (04:10)
06. The Assassin (04:18)
07. Run Silent Run Deep (04:34)
08. Hooks In You (04:06)
09. Bring Your Daughter... ...To The Slaughter (04:43)
10. Mother Russia (05:30)

Compilation - Single Collection 5
11. All In Your Mind (04:32)
12. Kill Me Ce Soir (06:17)
13. I'm A Mover (03:29)
14. Communication Breakdown (02:40)
15. Nodding Donkey Blues (03:18)
16. Number Of The Beast (Live) (04:57)
17. The Prisoner (Live) (06:08)

Лог создания рипа

Exact Audio Copy V1.3 from 2. September 2016
Отчёт EAC об извлечении, выполненном 10. июня 2018, 18:55
Iron Maiden / No Prayer For The Dying - Single Collection 5
Дисковод: PLEXTOR DVDR PX-712A Adapter: 8 ID: 1
Режим чтения : ДостоверностьИспользование точного потока : ДаОтключение кэша аудио : ДаИспользование указателей C2 : Нет
Коррекция смещения при чтении : 30Способность читать области Lead-in и Lead-out : НетЗаполнение пропущенных сэмплов тишиной : ДаУдаление блоков с тишиной в начале и конце : НетПри вычислениях CRC использовались нулевые сэмплы : ДаИнтерфейс : Установленный внешний ASPI-интерфейс
Выходной формат : Пользовательский кодировщикВыбранный битрейт : 128 kBit/sКачество : ВысокийДобавление ID3-тега : НетУтилита сжатия : C:\Program Files\Exact Audio Copy\FLAC\FLAC.EXEДополнительные параметры : -V -8 -T "Genre=%genre%" -T "Artist=%artist%" -T "Title=%title%" -T "Album=%albumtitle%" -T "Date=%year%" -T "Tracknumber=%tracknr%" -T "Comment=%comment%" %source%
TOC извлечённого CD
Трек | Старт | Длительность | Начальный сектор | Конечный сектор --------------------------------------------------------------------- 1 | 0:00.00 | 4:15.53 | 0 | 19177 2 | 4:15.53 | 3:48.59 | 19178 | 36336 3 | 8:04.37 | 4:23.24 | 36337 | 56085 4 | 12:27.61 | 4:13.39 | 56086 | 75099 5 | 16:41.25 | 4:10.15 | 75100 | 93864 6 | 20:51.40 | 4:18.04 | 93865 | 113218 7 | 25:09.44 | 4:34.56 | 113219 | 133824 8 | 29:44.25 | 4:06.65 | 133825 | 152339 9 | 33:51.15 | 4:43.42 | 152340 | 173606 10 | 38:34.57 | 5:30.24 | 173607 | 198380 11 | 44:05.06 | 4:32.58 | 198381 | 218838 12 | 48:37.64 | 6:17.60 | 218839 | 247173 13 | 54:55.49 | 3:29.09 | 247174 | 262857 14 | 58:24.58 | 2:40.43 | 262858 | 274900 15 | 61:05.26 | 3:18.51 | 274901 | 289801 16 | 64:24.02 | 4:57.09 | 289802 | 312085 17 | 69:21.11 | 6:08.01 | 312086 | 339686
Характеристики диапазона извлечения и сообщения об ошибках
Выбранный диапазон
Имя файла I:\MOI_RAZDACI\Iron.Maiden_No.Prayer.For.The.Dying_Single.Collection.5_2000\Iron.Maiden_No.Prayer.For.The.Dying_Single.Collection.5_2000\Iron Maiden - No Prayer For The Dying - Single Collection 5.wav
Пиковый уровень 100.0 % Скорость извлечения 11.3 X Качество диапазона 99.9 % CRC теста F8BA96D8 CRC копии F8BA96D8 Копирование... OK
Ошибок не произошло
AccurateRip: сводка
Трек 1 : извлечено точно (доверие 2) [C2F8796A] (AR v2)Трек 2 : извлечено точно (доверие 2) [3480E6E9] (AR v2)Трек 3 : извлечено точно (доверие 2) [761EA212] (AR v2)Трек 4 : извлечено точно (доверие 2) [BE43224C] (AR v2)Трек 5 : извлечено точно (доверие 2) [44F847DC] (AR v2)Трек 6 : извлечено точно (доверие 2) [799F882F] (AR v2)Трек 7 : извлечено точно (доверие 2) [4BE08A82] (AR v2)Трек 8 : извлечено точно (доверие 2) [EC98C8AA] (AR v2)Трек 9 : извлечено точно (доверие 2) [7BE587BD] (AR v2)Трек 10 : извлечено точно (доверие 2) [33D794FA] (AR v2)Трек 11 : извлечено точно (доверие 2) [92F56D48] (AR v2)Трек 12 : извлечено точно (доверие 2) [970DA573] (AR v2)Трек 13 : извлечено точно (доверие 2) [7B59B5F6] (AR v2)Трек 14 : извлечено точно (доверие 2) [326EBEFD] (AR v2)Трек 15 : извлечено точно (доверие 2) [79A0C684] (AR v2)Трек 16 : извлечено точно (доверие 2) [0EA0DDA4] (AR v2)Трек 17 : извлечено точно (доверие 2) [EE6C15C1] (AR v2)
Все треки извлечены точно
Конец отчёта
---- CUETools DB Plugin V2.1.6
[CTDB TOCID: Gd8jbyTIeBQCAoA0G6ldLQOSz8c-] foundSubmit result: Gd8jbyTIeBQCAoA0G6ldLQOSz8c- has been confirmedTrack | CTDB Status 1 | (7/7) Accurately ripped 2 | (7/7) Accurately ripped 3 | (7/7) Accurately ripped 4 | (7/7) Accurately ripped 5 | (7/7) Accurately ripped 6 | (7/7) Accurately ripped 7 | (7/7) Accurately ripped 8 | (7/7) Accurately ripped 9 | (7/7) Accurately ripped 10 | (7/7) Accurately ripped 11 | (7/7) Accurately ripped 12 | (7/7) Accurately ripped 13 | (7/7) Accurately ripped 14 | (7/7) Accurately ripped 15 | (7/7) Accurately ripped 16 | (7/7) Accurately ripped 17 | (7/7) Accurately ripped
==== Контрольная сумма отчёта 31E01C10B2BAC0B5F59DEE55D1A7D2FF6DDE108B897326BA2630108659D1B58D ====

Содержание индексной карты (.CUE)

REM GENRE "Heavy Metal"REM DATE 2000REM DISCID FD11B111REM COMMENT "ExactAudioCopy v1.3"CATALOG 0000000000000PERFORMER "Iron Maiden"TITLE "No Prayer For The Dying - Single Collection 5"REM COMPOSER ""FILE "Iron Maiden - No Prayer For The Dying - Single Collection 5.flac" WAVE TRACK 01 AUDIO TITLE "Tailgunner" PERFORMER "Iron Maiden" REM COMPOSER "" INDEX 01 00:00:00 TRACK 02 AUDIO TITLE "Holy Smoke" PERFORMER "Iron Maiden" REM COMPOSER "" INDEX 01 04:15:53 TRACK 03 AUDIO TITLE "No Prayer For The Dying" PERFORMER "Iron Maiden" REM COMPOSER "" INDEX 01 08:04:37 TRACK 04 AUDIO TITLE "Public Enema Number One" PERFORMER "Iron Maiden" REM COMPOSER "" INDEX 01 12:27:61 TRACK 05 AUDIO TITLE "Fates Warning" PERFORMER "Iron Maiden" REM COMPOSER "" INDEX 01 16:41:25 TRACK 06 AUDIO TITLE "The Assassin" PERFORMER "Iron Maiden" REM COMPOSER "" INDEX 01 20:51:40 TRACK 07 AUDIO TITLE "Run Silent Run Deep" PERFORMER "Iron Maiden" REM COMPOSER "" INDEX 01 25:09:44 TRACK 08 AUDIO TITLE "Hooks In You" PERFORMER "Iron Maiden" REM COMPOSER "" INDEX 01 29:44:25 TRACK 09 AUDIO TITLE "Bring Your Daughter... ...To The Slaughter" PERFORMER "Iron Maiden" REM COMPOSER "" INDEX 01 33:51:15 TRACK 10 AUDIO TITLE "Mother Russia" PERFORMER "Iron Maiden" REM COMPOSER "" INDEX 01 38:34:57 TRACK 11 AUDIO TITLE "All In Your Mind" PERFORMER "Iron Maiden" REM COMPOSER "" INDEX 01 44:05:06 TRACK 12 AUDIO TITLE "Kill Me Ce Soir" PERFORMER "Iron Maiden" REM COMPOSER "" INDEX 01 48:37:64 TRACK 13 AUDIO TITLE "I'm A Mover" PERFORMER "Iron Maiden" REM COMPOSER "" INDEX 01 54:55:49 TRACK 14 AUDIO TITLE "Communication Breakdown" PERFORMER "Iron Maiden" REM COMPOSER "" INDEX 01 58:24:58 TRACK 15 AUDIO TITLE "Nodding Donkey Blues" PERFORMER "Iron Maiden" REM COMPOSER "" INDEX 01 61:05:26 TRACK 16 AUDIO TITLE "Number Of The Beast (Live)" PERFORMER "Iron Maiden" REM COMPOSER "" INDEX 01 64:24:02 TRACK 17 AUDIO TITLE "The Prisoner (Live)" PERFORMER "Iron Maiden" REM COMPOSER "" INDEX 01 69:21:11

Лог проверки качества

-----------------------
DON'T MODIFY THIS FILE
-----------------------
PERFORMER: auCDtect Task Manager, ver. 1.6.0 RC1 build 1.6.0.1Copyright (c) 2008-2010 y-soft. All rights reservedhttp://y-soft.org
ANALYZER: auCDtect: CD records authenticity detector, version 0.8.2Copyright (c) 2004 Oleg Berngardt. All rights reserved.Copyright (c) 2004 Alexander Djourik. All rights reserved.
FILE: Iron Maiden - No Prayer For The Dying - Single Collection 5.flac Size: 542090334 Hash: C704089C26130FB0DDC845B4CBFDADF0 Accuracy: -m0 Conclusion: MPEG 95% Signature: 908A54F001FF77DEC2C32BAA3EA1EFA52B2F90F9
----------ПО ТРЕКАМ СОВСЕМ ДРУГАЯ КАРТИНА--------------------------------------------------------------------------------------------------
-----------------------
DON'T MODIFY THIS FILE
-----------------------
PERFORMER: auCDtect Task Manager, ver. 1.6.0 RC1 build 1.6.0.1Copyright (c) 2008-2010 y-soft. All rights reservedhttp://y-soft.org
ANALYZER: auCDtect: CD records authenticity detector, version 0.8.2Copyright (c) 2004 Oleg Berngardt. All rights reserved.Copyright (c) 2004 Alexander Djourik. All rights reserved.
FILE: 17 - The Prisoner (Live).flac Size: 41190983 Hash: 370F12EA807918BF328792ED6943243F Accuracy: -m0 Conclusion: CDDA 100% Signature: C96C1E55E4762EE07D2633B39BB4E9F44A64C464FILE: 16 - Number Of The Beast (Live).flac Size: 35158050 Hash: 97470984C8EC39BC2EA8BCBE0FB56E8D Accuracy: -m0 Conclusion: CDDA 100% Signature: 3A70BBCC0BD4E16374DF9E182A2A13C519A5C5C1FILE: 15 - Nodding Donkey Blues.flac Size: 21838501 Hash: BD53ABF179CD95F62DCC4BCE0DC8146A Accuracy: -m0 Conclusion: MPEG 95% Signature: 329BA7E75F68815316D4DADF55B72845E1D896E5FILE: 14 - Communication Breakdown.flac Size: 20067677 Hash: 4831DE4DA7EDC0AB6A3DABCEDD628D9A Accuracy: -m0 Conclusion: CDDA 99% Signature: B32F13350FC4E427629AF3BAC3E6C07653A71635FILE: 13 - I'm A Mover.flac Size: 24051967 Hash: F443C403419A8D2583461962D5DD80FC Accuracy: -m0 Conclusion: CDDA 100% Signature: FFA737B8D2B29106A039596F8914DDCEB88E0FADFILE: 12 - Kill Me Ce Soir.flac Size: 45372368 Hash: E828500C9D89321A0169431EA1AA3DAA Accuracy: -m0 Conclusion: CDDA 99% Signature: 881B7C64B1F292DC03122D7E203BECD3739C8AD5FILE: 11 - All In Your Mind.flac Size: 33556248 Hash: D0867B7CD7C4FC52885D908BC857938D Accuracy: -m0 Conclusion: CDDA 100% Signature: 03E109E950DEC6076E5DB85E7AD50A580058B560FILE: 10 - Mother Russia.flac Size: 37046806 Hash: 489F7BF1AC053DB8496EEC3AAFF34EFF Accuracy: -m0 Conclusion: CDDA 100% Signature: 08ECBD1269AC30ED75D83AE802404D2FFC87DCE5FILE: 09 - Bring Your Daughter... ...To The Slaughter.flac Size: 34720677 Hash: CBC18D9933B7506702F3C9227BB7B3AC Accuracy: -m0 Conclusion: CDDA 100% Signature: E2CF851535D22F3DBC32293F6E3547D1633B0251FILE: 08 - Hooks In You.flac Size: 30481415 Hash: 13D9F30D2B6144186547DD49712B0BC8 Accuracy: -m0 Conclusion: CDDA 100% Signature: 6DB9BABABFAAEA8B5C97E8CEE4BB2FCB7C63C8A9FILE: 07 - Run Silent Run Deep.flac Size: 32237488 Hash: CD10FCF84B24AC71C6B021FD66E3453E Accuracy: -m0 Conclusion: CDDA 100% Signature: 56DE49CB650C97DD542CE472AFF160151F0CB588FILE: 06 - The Assassin.flac Size: 32294612 Hash: 25DD0AAC04AAF5284F13554A07791C87 Accuracy: -m0 Conclusion: CDDA 100% Signature: 2209A4886F5B54D98760955A79230BB18B52A43AFILE: 05 - Fates Warning.flac Size: 29190873 Hash: 92DCAF9B38D1813434E18F9BF9641F10 Accuracy: -m0 Conclusion: CDDA 100% Signature: 6E2B276C7BD4412CA05D45C8256176CD53D41FDAFILE: 04 - Public Enema Number One.flac Size: 31610045 Hash: 73031A80682F21CEC52B71C16EDF1486 Accuracy: -m0 Conclusion: CDDA 100% Signature: 8E201AA8B1F4AA982A9BEEB1DB2B1D1A215A4D23FILE: 03 - No Prayer For The Dying.flac Size: 31469542 Hash: 9DF7813960B2DFCB9E361E4AE4A8E965 Accuracy: -m0 Conclusion: CDDA 100% Signature: E38932D51AD41830382E4DB06485C39C968ECDFEFILE: 02 - Holy Smoke.flac Size: 28922101 Hash: 8E91C30B1F076290572E5CAB6B637E7E Accuracy: -m0 Conclusion: CDDA 100% Signature: E23779334D361221D9475A97DA77F2DA416F3E81FILE: 01 - Tailgunner.flac Size: 32933545 Hash: C93734796A0556CBB8E9FEB5ED08B3C7 Accuracy: -m0 Conclusion: CDDA 99% Signature: 3F963D6B1FD52DB395763033A9F2BF955A52BB50

Скриншот спектра частот



[torrentc.info]_t_5575147.torrent
Торрент: Зарегистрирован ·  [ 2018-06-21 21:15 ] ·  5d7fe3978d6235a34728870a3fa8ba1348defc0a

12 KB

Статус: проверено
Скачан: 0 раз
Размер: 581 MB
Оценка: 
(Голосов: 0)
Сказали спасибо: 0  Спасибо
Похожие темы
[Профиль]    [ЛС]
Показать сообщения:    
Ответить на тему

Текущее время: Сегодня 12:49

Часовой пояс: GMT + 7



Вы не можете начинать темы
Вы не можете отвечать на сообщения
Вы не можете редактировать свои сообщения
Вы не можете удалять свои сообщения
Вы не можете голосовать в опросах
Вы не можете прикреплять файлы к сообщениям
Вы можете скачивать файлы