(Surf Rock, Instrumental Rock) Don & The Quixotes - Дискография (4 Альбома) - 2012-2017, FLAC (image+.cue), lossless

Ответить на тему
Статистика раздачи [Обновить пиров]
Размер:  1.01 GB   |    Зарегистрирован:  4 месяца 23 дня   |    Скачан:  0 раз

Полного источника не было: Никогда

 
   
 
 
 
Автор Сообщение

torrentc.info

Создавать темы 21-Июн-2018 21:18

[Цитировать]

Don & The Quixotes
Дискография ( 4 Альбома)
-- --Жанр: Surf Rock, Instrumental Rock
Страна-производитель диска: USA
Год издания: 2012-2017
Аудиокодек: FLAC (*.flac)
Тип рипа: image+.cue
Битрейт аудио: lossless
Источник (релизер):
Наличие сканов в содержимом раздачи: да
Треклист:
-15 Июня 2018 года добавлен альбом:
2017 - Don We Now
Желающие могут ознакомиться.
-

2012 - My Name Is Don! - 38:59

01. My Name Is Don! (2:22)
02. Sunday Stroll? (2:20)
03. People Make the World Go 'round (3:37)
04. Surfer Elise (3:11)
05. Orbiter (3:25)
06. Little Sunflower (3:08)
07. Rocinante's Lament (3:20)
08. Andale (4:07)
09. The Cactus (3:01)
10. Here Comes Don! (2:55)
11. Roll Cage Pt. 1 (Time Trial) (3:26)
12. Lore 'n' Legend (4:01)
-

~EAC~

Exact Audio Copy V1.0 beta 3 from 29. August 2011
Отчёт EAC об извлечении, выполненном 29. ноября 2015, 12:34
Don & The Quixotes / My Name Is Don!
Дисковод: PLEXTOR DVDR PX-880SA Adapter: 1 ID: 0
Режим чтения : ДостоверностьИспользование точного потока : ДаОтключение кэша аудио : ДаИспользование указателей C2 : Нет
Коррекция смещения при чтении : 6Способность читать области Lead-in и Lead-out : НетЗаполнение пропущенных сэмплов тишиной : ДаУдаление блоков с тишиной в начале и конце : НетПри вычислениях CRC использовались нулевые сэмплы : ДаИнтерфейс : Установленный внешний ASPI-интерфейс
Выходной формат : Пользовательский кодировщикВыбранный битрейт : 1024 kBit/sКачество : ВысокийДобавление ID3-тега : НетУтилита сжатия : C:\Program Files\Exact Audio Copy\FLAC\FLAC.EXEДополнительные параметры : -8 -V -T "ARTIST=%artist%" -T "ALBUM=%albumtitle%" -T "DATE=%year%" -T "GENRE=%genre%" -T "COMMENT=ripped by izia1956" %source%
TOC извлечённого CD
Трек | Старт | Длительность | Начальный сектор | Конечный сектор --------------------------------------------------------------------- 1 | 0:00.00 | 2:22.57 | 0 | 10706 2 | 2:22.57 | 2:20.37 | 10707 | 21243 3 | 4:43.19 | 3:37.31 | 21244 | 37549 4 | 8:20.50 | 3:11.52 | 37550 | 51926 5 | 11:32.27 | 3:25.57 | 51927 | 67358 6 | 14:58.09 | 3:08.57 | 67359 | 81515 7 | 18:06.66 | 3:20.17 | 81516 | 96532 8 | 21:27.08 | 4:07.35 | 96533 | 115092 9 | 25:34.43 | 3:01.01 | 115093 | 128668 10 | 28:35.44 | 2:55.03 | 128669 | 141796 11 | 31:30.47 | 3:26.63 | 141797 | 157309 12 | 34:57.35 | 4:01.60 | 157310 | 175444
Характеристики диапазона извлечения и сообщения об ошибках
Выбранный диапазон
Имя файла D:\BitComet\Don & The Quixotes(flac)\2012 - My Name Is Don!\Don & The Quixotes - My Name Is Don!.wav
Пиковый уровень 97.8 % Скорость извлечения 2.8 X Качество диапазона 99.9 % CRC теста 4AF1A024 CRC копии 4AF1A024 Копирование... OK
Ошибок не произошло
AccurateRip: сводка
Трек 1 : извлечено точно (доверие 1) [B8C3678D] (AR v1)Трек 2 : извлечено точно (доверие 1) [C4E0DFAC] (AR v1)Трек 3 : извлечено точно (доверие 1) [B1F1F8C2] (AR v1)Трек 4 : извлечено точно (доверие 1) [4B9809FD] (AR v1)Трек 5 : извлечено точно (доверие 1) [76DAC023] (AR v1)Трек 6 : извлечено точно (доверие 1) [A99B775A] (AR v1)Трек 7 : извлечено точно (доверие 1) [AA608F8B] (AR v1)Трек 8 : извлечено точно (доверие 1) [680664ED] (AR v1)Трек 9 : извлечено точно (доверие 1) [93843D24] (AR v1)Трек 10 : извлечено точно (доверие 1) [64E5313D] (AR v1)Трек 11 : извлечено точно (доверие 1) [76A1CAFF] (AR v1)Трек 12 : извлечено точно (доверие 1) [1C656137] (AR v1)
Все треки извлечены точно
Конец отчёта
==== Контрольная сумма отчёта DFD2ED7231B484F1EBF8211EC787458DFAAAD2A7B4BDDF7864DC144FBAFB8434 ====

Содержание индексной карты (.CUE)

REM GENRE "Surf Rock, Instrumental Rock"REM DATE 2012REM DISCID A909230CREM COMMENT "ExactAudioCopy v1.0b3"PERFORMER "Don & The Quixotes"TITLE "My Name Is Don!"FILE "Don & The Quixotes - My Name Is Don!.flac" WAVE TRACK 01 AUDIO TITLE "My Name Is Don!" PERFORMER "Don & The Quixotes" INDEX 01 00:00:00 TRACK 02 AUDIO TITLE "Sunday Stroll?" PERFORMER "Don & The Quixotes" INDEX 01 02:22:57 TRACK 03 AUDIO TITLE "People Make the World Go 'Round " PERFORMER "Don & The Quixotes" INDEX 01 04:43:19 TRACK 04 AUDIO TITLE "Surfer Elise" PERFORMER "Don & The Quixotes" INDEX 01 08:20:50 TRACK 05 AUDIO TITLE "Orbiter " PERFORMER "Don & The Quixotes" INDEX 01 11:32:27 TRACK 06 AUDIO TITLE "Little Sunflower " PERFORMER "Don & The Quixotes" INDEX 01 14:58:09 TRACK 07 AUDIO TITLE "Rocinante's Lament " PERFORMER "Don & The Quixotes" INDEX 01 18:06:66 TRACK 08 AUDIO TITLE "Andale " PERFORMER "Don & The Quixotes" INDEX 01 21:27:08 TRACK 09 AUDIO TITLE "The Cactus" PERFORMER "Don & The Quixotes" INDEX 01 25:34:43 TRACK 10 AUDIO TITLE "Here Comes Don!" PERFORMER "Don & The Quixotes" INDEX 01 28:35:44 TRACK 11 AUDIO TITLE "Roll Cage pt. 1 (Time Trial) " PERFORMER "Don & The Quixotes" INDEX 01 31:30:47 TRACK 12 AUDIO TITLE "Lore 'n' Legend" PERFORMER "Don & The Quixotes" INDEX 01 34:57:35

2013 - Teflon Don - 47:12

01. Teflon Don (2:49)
02. Maiden Voyage (3:45)
03. Taj Mahalo (3:51)
04. When the Saints Go Surfin' In (For B.C.) (4:20)
05. Faithful Brother (4:05)
06. The Weekender (3:22)
07. Omelette King (4:17)
08. Up 101 (2:37)
09. Dulcinea (4:39)
10. Bourree (4:39)
11. Strangers in the Night (4:27)
12. Conch You Hear? (4:16)
-

~EAC~

Exact Audio Copy V1.0 beta 3 from 29. August 2011
Отчёт EAC об извлечении, выполненном 29. ноября 2015, 13:14
Don & The Quixotes / Teflon Don
Дисковод: PLEXTOR DVDR PX-880SA Adapter: 1 ID: 0
Режим чтения : ДостоверностьИспользование точного потока : ДаОтключение кэша аудио : ДаИспользование указателей C2 : Нет
Коррекция смещения при чтении : 6Способность читать области Lead-in и Lead-out : НетЗаполнение пропущенных сэмплов тишиной : ДаУдаление блоков с тишиной в начале и конце : НетПри вычислениях CRC использовались нулевые сэмплы : ДаИнтерфейс : Установленный внешний ASPI-интерфейс
Выходной формат : Пользовательский кодировщикВыбранный битрейт : 1024 kBit/sКачество : ВысокийДобавление ID3-тега : НетУтилита сжатия : C:\Program Files\Exact Audio Copy\FLAC\FLAC.EXEДополнительные параметры : -8 -V -T "ARTIST=%artist%" -T "ALBUM=%albumtitle%" -T "DATE=%year%" -T "GENRE=%genre%" -T "COMMENT=ripped by izia1956" %source%
TOC извлечённого CD
Трек | Старт | Длительность | Начальный сектор | Конечный сектор --------------------------------------------------------------------- 1 | 0:00.00 | 2:49.74 | 0 | 12748 2 | 2:49.74 | 3:45.52 | 12749 | 29675 3 | 6:35.51 | 3:51.06 | 29676 | 47006 4 | 10:26.57 | 4:20.23 | 47007 | 66529 5 | 14:47.05 | 4:05.23 | 66530 | 84927 6 | 18:52.28 | 3:22.03 | 84928 | 100080 7 | 22:14.31 | 4:17.69 | 100081 | 119424 8 | 26:32.25 | 2:37.48 | 119425 | 131247 9 | 29:09.73 | 4:39.05 | 131248 | 152177 10 | 33:49.03 | 4:39.33 | 152178 | 173135 11 | 38:28.36 | 4:27.33 | 173136 | 193193 12 | 42:55.69 | 4:16.53 | 193194 | 212446
Характеристики диапазона извлечения и сообщения об ошибках
Выбранный диапазон
Имя файла D:\BitComet\Don & The Quixotes(flac)\2013 - Teflon Don\Don & The Quixotes - Teflon Don.wav
Пиковый уровень 99.9 % Скорость извлечения 2.8 X Качество диапазона 99.9 % CRC теста 19F35992 CRC копии 19F35992 Копирование... OK
Ошибок не произошло
AccurateRip: сводка
Трек 1 : извлечено точно (доверие 1) [69F1D68F] (AR v1)Трек 2 : извлечено точно (доверие 1) [87C06F80] (AR v1)Трек 3 : извлечено точно (доверие 1) [49E4C8A4] (AR v1)Трек 4 : извлечено точно (доверие 1) [ADD72177] (AR v1)Трек 5 : извлечено точно (доверие 1) [5DF80E6A] (AR v1)Трек 6 : извлечено точно (доверие 1) [A317EA6F] (AR v1)Трек 7 : извлечено точно (доверие 1) [9DC93D0A] (AR v1)Трек 8 : извлечено точно (доверие 1) [F35832CF] (AR v1)Трек 9 : извлечено точно (доверие 1) [808E67D1] (AR v1)Трек 10 : извлечено точно (доверие 1) [3E50C545] (AR v1)Трек 11 : извлечено точно (доверие 1) [CAA09BD2] (AR v1)Трек 12 : извлечено точно (доверие 1) [AED393D1] (AR v1)
Все треки извлечены точно
Конец отчёта
==== Контрольная сумма отчёта A128C6173705E1C267339754C42EA833CF049699CD15D24DA21FA49468F0EDBF ====

Содержание индексной карты (.CUE)

REM GENRE "Surf Rock, Instrumental Rock"REM DATE 2013REM DISCID 9F0B100CREM COMMENT "ExactAudioCopy v1.0b3"PERFORMER "Don & The Quixotes"TITLE "Teflon Don"FILE "Don & The Quixotes - Teflon Don.flac" WAVE TRACK 01 AUDIO TITLE "Teflon Don" PERFORMER "Don & The Quixotes" INDEX 01 00:00:00 TRACK 02 AUDIO TITLE "Maiden Voyage" PERFORMER "Don & The Quixotes" INDEX 01 02:49:74 TRACK 03 AUDIO TITLE "Taj Mahalo" PERFORMER "Don & The Quixotes" INDEX 01 06:35:51 TRACK 04 AUDIO TITLE "When the Saints Go Surfin' In (For B.C.)" PERFORMER "Don & The Quixotes" INDEX 01 10:26:57 TRACK 05 AUDIO TITLE "Faithful Brother" PERFORMER "Don & The Quixotes" INDEX 01 14:47:05 TRACK 06 AUDIO TITLE "The Weekender" PERFORMER "Don & The Quixotes" INDEX 01 18:52:28 TRACK 07 AUDIO TITLE "Omelette King" PERFORMER "Don & The Quixotes" INDEX 01 22:14:31 TRACK 08 AUDIO TITLE "Up 101" PERFORMER "Don & The Quixotes" INDEX 01 26:32:25 TRACK 09 AUDIO TITLE "Dulcinea" PERFORMER "Don & The Quixotes" INDEX 01 29:09:73 TRACK 10 AUDIO TITLE "Bourree" PERFORMER "Don & The Quixotes" INDEX 01 33:49:03 TRACK 11 AUDIO TITLE "Strangers in the Night" PERFORMER "Don & The Quixotes" INDEX 01 38:28:36 TRACK 12 AUDIO TITLE "Conch You Hear?" PERFORMER "Don & The Quixotes" INDEX 01 42:55:69

2015 - Don 'til Dawn - 46:48

01. Don 'til Dawn (3:32)
02. La Fiesta De La Quixote (4:19)
03. The Horse (4:07)
04. Surfin' On the Moon (3:50)
05. Sabre Dance (3:18)
06. Tide of the Season (3:27)
07. Roll Cage Pt. 2 (Shiftin' Gears) (2:28)
08. Yudha! (3:03)
09. Chairman of the Boogie (4:19)
10. Don's Dreaming Again (3:54)
11. Donferno (4:39)
12. La Mancha (5:49)
-

~EAC~

Exact Audio Copy V1.0 beta 3 from 29. August 2011
Отчёт EAC об извлечении, выполненном 29. ноября 2015, 0:31
Don & The Quixotes / Don 'Til Dawn
Дисковод: PLEXTOR DVDR PX-880SA Adapter: 1 ID: 0
Режим чтения : ДостоверностьИспользование точного потока : ДаОтключение кэша аудио : ДаИспользование указателей C2 : Нет
Коррекция смещения при чтении : 6Способность читать области Lead-in и Lead-out : НетЗаполнение пропущенных сэмплов тишиной : ДаУдаление блоков с тишиной в начале и конце : НетПри вычислениях CRC использовались нулевые сэмплы : ДаИнтерфейс : Установленный внешний ASPI-интерфейс
Выходной формат : Пользовательский кодировщикВыбранный битрейт : 1024 kBit/sКачество : ВысокийДобавление ID3-тега : НетУтилита сжатия : C:\Program Files\Exact Audio Copy\FLAC\FLAC.EXEДополнительные параметры : -8 -V -T "ARTIST=%artist%" -T "ALBUM=%albumtitle%" -T "DATE=%year%" -T "GENRE=%genre%" -T "COMMENT=ripped by izia1956" %source%
TOC извлечённого CD
Трек | Старт | Длительность | Начальный сектор | Конечный сектор --------------------------------------------------------------------- 1 | 0:00.00 | 3:32.17 | 0 | 15916 2 | 3:32.17 | 4:19.09 | 15917 | 35350 3 | 7:51.26 | 4:07.73 | 35351 | 53948 4 | 11:59.24 | 3:50.08 | 53949 | 71206 5 | 15:49.32 | 3:18.21 | 71207 | 86077 6 | 19:07.53 | 3:27.66 | 86078 | 101668 7 | 22:35.44 | 2:28.02 | 101669 | 112770 8 | 25:03.46 | 3:03.00 | 112771 | 126495 9 | 28:06.46 | 4:19.08 | 126496 | 145928 10 | 32:25.54 | 3:54.11 | 145929 | 163489 11 | 36:19.65 | 4:39.00 | 163490 | 184414 12 | 40:58.65 | 5:49.44 | 184415 | 210633
Характеристики диапазона извлечения и сообщения об ошибках
Выбранный диапазон
Имя файла D:\BitComet\Don & The Quixotes(flac)\2015 - Don 'til Dawn\Don & The Quixotes - Don 'Til Dawn.wav
Пиковый уровень 96.6 % Скорость извлечения 2.9 X Качество диапазона 100.0 % CRC теста B2684619 CRC копии B2684619 Копирование... OK
Ошибок не произошло
AccurateRip: сводка
Трек 1 отсутствует в базе данныхТрек 2 отсутствует в базе данныхТрек 3 отсутствует в базе данныхТрек 4 отсутствует в базе данныхТрек 5 отсутствует в базе данныхТрек 6 отсутствует в базе данныхТрек 7 отсутствует в базе данныхТрек 8 отсутствует в базе данныхТрек 9 отсутствует в базе данныхТрек 10 отсутствует в базе данныхТрек 11 отсутствует в базе данныхТрек 12 отсутствует в базе данных
Ни одного трека нет в базе AccurateRip
Конец отчёта
==== Контрольная сумма отчёта 9547861C4936C5D20D0E556297F106FE1370DF6BBBB7CEC3AD600904BDDC0B88 ====

Содержание индексной карты (.CUE)

REM GENRE SurfREM DATE 2015REM DISCID 9E0AF80CREM COMMENT "ExactAudioCopy v1.0b3"PERFORMER "Don & The Quixotes"TITLE "Don 'Til Dawn"FILE "Don & The Quixotes - Don 'Til Dawn.flac" WAVE TRACK 01 AUDIO TITLE "Don 'Til Dawn" PERFORMER "Don & The Quixotes" INDEX 01 00:00:00 TRACK 02 AUDIO TITLE "La Fiesta De La Quixote" PERFORMER "Don & The Quixotes" INDEX 01 03:32:17 TRACK 03 AUDIO TITLE "The Horse" PERFORMER "Don & The Quixotes" INDEX 01 07:51:26 TRACK 04 AUDIO TITLE "Surfin' On the Moon" PERFORMER "Don & The Quixotes" INDEX 01 11:59:24 TRACK 05 AUDIO TITLE "Sabre Dance" PERFORMER "Don & The Quixotes" INDEX 01 15:49:32 TRACK 06 AUDIO TITLE "Tide of the Season" PERFORMER "Don & The Quixotes" INDEX 01 19:07:53 TRACK 07 AUDIO TITLE "Roll Cage Pt. 2 (Shiftin' Gears)" PERFORMER "Don & The Quixotes" INDEX 01 22:35:44 TRACK 08 AUDIO TITLE "Yudha!" PERFORMER "Don & The Quixotes" INDEX 01 25:03:46 TRACK 09 AUDIO TITLE "Chairman of the Boogie" PERFORMER "Don & The Quixotes" INDEX 00 28:05:73 INDEX 01 28:06:46 TRACK 10 AUDIO TITLE "Don's Dreaming Again" PERFORMER "Don & The Quixotes" INDEX 01 32:25:54 TRACK 11 AUDIO TITLE "Donferno" PERFORMER "Don & The Quixotes" INDEX 01 36:19:65 TRACK 12 AUDIO TITLE "La Mancha" PERFORMER "Don & The Quixotes" INDEX 01 40:58:65

2017 - Don We Now - 42:06

01. Don We Now... (3:14)
02. (Surfin' in A) Winter Wonderland (2:43)
03. Sleigh Rider (4:12)
04. We Four Kings (3:57)
05. The Dreidel Song / Theme From "Exodus" (3:41)
06. Senile Knight (2:40)
07. My Favorite Things (4:18)
08. Carol of the Bells (3:18)
09. (Strings Of) Popcorn (3:38)
10. Foreign Exchange (3:27)
11. Gold Sequined Bells (4:05)
12. Auld Lang Syne (2:53)
-

~EAC~

Exact Audio Copy V1.3 from 2. September 2016
Отчёт EAC об извлечении, выполненном 15. июня 2018, 18:27
Don & The Quixotes / Don We Now
Дисковод: HL-DT-STDVD+-RW GH82N Adapter: 1 ID: 0
Режим чтения : ДостоверностьИспользование точного потока : ДаОтключение кэша аудио : ДаИспользование указателей C2 : Нет
Коррекция смещения при чтении : 667Способность читать области Lead-in и Lead-out : НетЗаполнение пропущенных сэмплов тишиной : ДаУдаление блоков с тишиной в начале и конце : НетПри вычислениях CRC использовались нулевые сэмплы : ДаИнтерфейс : Встроенный Win32-интерфейс для Win NT/2000
Выходной формат : Пользовательский кодировщикВыбранный битрейт : 1024 kBit/sКачество : ВысокийДобавление ID3-тега : НетУтилита сжатия : C:\Program Files (x86)\Exact Audio Copy\FLAC\FLAC.EXEДополнительные параметры : -8 -V -T "ARTIST=%artist%" -T "ALBUM=%albumtitle%" -T "DATE=%year%" -T "GENRE=%genre%" -T "COMMENT=ripped by izia1956" %source%
TOC извлечённого CD
Трек | Старт | Длительность | Начальный сектор | Конечный сектор --------------------------------------------------------------------- 1 | 0:00.00 | 3:14.32 | 0 | 14581 2 | 3:14.32 | 2:43.21 | 14582 | 26827 3 | 5:57.53 | 4:12.07 | 26828 | 45734 4 | 10:09.60 | 3:56.63 | 45735 | 63497 5 | 14:06.48 | 3:41.17 | 63498 | 80089 6 | 17:47.65 | 2:40.09 | 80090 | 92098 7 | 20:27.74 | 4:17.37 | 92099 | 111410 8 | 24:45.36 | 3:18.08 | 111411 | 126268 9 | 28:03.44 | 3:38.27 | 126269 | 142645 10 | 31:41.71 | 3:27.05 | 142646 | 158175 11 | 35:09.01 | 4:04.50 | 158176 | 176525 12 | 39:13.51 | 2:53.12 | 176526 | 189512
Характеристики диапазона извлечения и сообщения об ошибках
Выбранный диапазон
Имя файла E:\BitComet\Don & The Quixotes(flac)\2017 - Don We Now\Don & The Quixotes - Don We Now.wav
Пиковый уровень 96.6 % Скорость извлечения 2.8 X Качество диапазона 99.9 % CRC теста ADF40E18 CRC копии ADF40E18 Копирование... OK
Ошибок не произошло
AccurateRip: сводка
Трек 1 отсутствует в базе данныхТрек 2 отсутствует в базе данныхТрек 3 отсутствует в базе данныхТрек 4 отсутствует в базе данныхТрек 5 отсутствует в базе данныхТрек 6 отсутствует в базе данныхТрек 7 отсутствует в базе данныхТрек 8 отсутствует в базе данныхТрек 9 отсутствует в базе данныхТрек 10 отсутствует в базе данныхТрек 11 отсутствует в базе данныхТрек 12 отсутствует в базе данных
Ни одного трека нет в базе AccurateRip
Конец отчёта
==== Контрольная сумма отчёта E023F9C7966169A0F0A2A4E449D5B1E0CCF96A3930206055417C882A0D122C74 ====

Содержание индексной карты (.CUE)

REM GENRE SurfREM DATE 2017REM DISCID A609DE0CREM COMMENT "ExactAudioCopy v1.3"PERFORMER "Don & The Quixotes"TITLE "Don We Now"REM COMPOSER "Don & The Quixotes"FILE "Don & The Quixotes - Don We Now.flac" WAVE TRACK 01 AUDIO TITLE "Don We Now" PERFORMER "Don & The Quixotes" REM COMPOSER "Don & The Quixotes" INDEX 01 00:00:00 TRACK 02 AUDIO TITLE "(Surfin' in a) Winter Wonderland" PERFORMER "Don & The Quixotes" REM COMPOSER "Don & The Quixotes" INDEX 01 03:14:32 TRACK 03 AUDIO TITLE "Sleigh Rider" PERFORMER "Don & The Quixotes" REM COMPOSER "Don & The Quixotes" INDEX 01 05:57:53 TRACK 04 AUDIO TITLE "We Four Kings" PERFORMER "Don & The Quixotes" REM COMPOSER "Don & The Quixotes" INDEX 01 10:09:60 TRACK 05 AUDIO TITLE "The Dreidel Song/Theme From 'Exodus'" PERFORMER "Don & The Quixotes" REM COMPOSER "Don & The Quixotes" INDEX 01 14:06:48 TRACK 06 AUDIO TITLE "Senile Knight" PERFORMER "Don & The Quixotes" REM COMPOSER "Don & The Quixotes" INDEX 01 17:47:65 TRACK 07 AUDIO TITLE "My Favorite Things" PERFORMER "Don & The Quixotes" REM COMPOSER "Don & The Quixotes" INDEX 01 20:27:74 TRACK 08 AUDIO TITLE "Carol of the Bells" PERFORMER "Don & The Quixotes" REM COMPOSER "Don & The Quixotes" INDEX 01 24:45:36 TRACK 09 AUDIO TITLE "(Strings of) Popcorn" PERFORMER "Don & The Quixotes" REM COMPOSER "Don & The Quixotes" INDEX 01 28:03:44 TRACK 10 AUDIO TITLE "Foregin Exchange" PERFORMER "Don & The Quixotes" REM COMPOSER "Don & The Quixotes" INDEX 01 31:41:71 TRACK 11 AUDIO TITLE "Gold Sequined Bells" PERFORMER "Don & The Quixotes" REM COMPOSER "Don & The Quixotes" INDEX 01 35:09:01 TRACK 12 AUDIO TITLE "Auld Lang Syne" PERFORMER "Don & The Quixotes" REM COMPOSER "Don & The Quixotes" INDEX 01 39:13:51
Доп. информация: Рип сделан собственноручно.
Сканы в папке.
Ознакомиться (прослушать) можно здесь
Рип от


[torrentc.info]_t_4507737.torrent
Торрент: Зарегистрирован ·  [ 2018-06-21 21:15 ] ·  8b7e6d54208e9af8a3be6537c4db12730197c478

13 KB

Статус: проверено
Скачан: 0 раз
Размер: 1.01 GB
Оценка: 
(Голосов: 0)
Сказали спасибо: 0  Спасибо
Похожие темы
[Профиль]    [ЛС]
Показать сообщения:    
Ответить на тему

Текущее время: Сегодня 22:35

Часовой пояс: GMT + 7



Вы не можете начинать темы
Вы не можете отвечать на сообщения
Вы не можете редактировать свои сообщения
Вы не можете удалять свои сообщения
Вы не можете голосовать в опросах
Вы не можете прикреплять файлы к сообщениям
Вы можете скачивать файлы