(Score) Звездные войны: коллекция саундреков / Star Wars: The Ultimate Soundtrack Collection (by John Williams) [10 CD + 1 DVD Box set] - 2016, FLAC (tracks+.cue), lossless

Ответить на тему
Статистика раздачи [Обновить пиров]
Размер:  3.39 GB   |    Зарегистрирован:  4 месяца 23 дня   |    Скачан:  0 раз

Полного источника не было: Никогда

 
   
 
 
 
Автор Сообщение

torrentc.info

Создавать темы 21-Июн-2018 00:14

[Цитировать]

Звездные войны: коллекция саундреков |
Star Wars: The Ultimate Soundtrack Collection [10 CD + 1 DVD Box set]
Жанр: Score
Композитор: John Williams
Год выхода диска: 2016
Страна-производитель диска: EU
Издатель (лейбл): Sony Classical
Номер по каталогу: 88875167302
Аудио кодек: FLAC (*.flac)
Тип рипа: tracks+.cue
Битрейт аудио: lossless
Продолжительность: 709 minutes
Источник: Собственный рип
Наличие сканов в содержимом раздачи: да, 600 dpi, jpg (буклет в отдельной папке)

DISC 1 – Episode I: The Phantom Menace

Треклист:
1. Star Wars Main Title And The Arrival At Naboo 2:56
2. Duel Of The Fates 4:14
3. Anakin's Theme 3:09
4. Jar Jar's Introduction And The Swim To Otoh Gunga 5:08
5. The Sith Spacecraft And The Droid Battle 2:37
6. The Trip To The Naboo Temple And The Audience With Boss Nass 4:07
7. The Arrival At Tatooine And The Flag Parade 4:04
8. He Is The Chosen One 3:53
9. Anakin Defeats Sebulba 4:24
10. Passage Through The Planet Core 4:40
11. Watto's Deal And Kids At Play 4:57
12. Panaka And The Queen's Protectors 3:24
13. Queen Amidala And The Naboo Palace 4:52
14. The Droid Invasion And The Appearance Of Darth Maul 5:14
15. Qui-Gon's Noble End 3:48
16. The High Council Meeting And Qui-Gon's Funeral 3:09
17. Augie's Great Municipal Band And End Credits 9:40

Лог создания рипа

Exact Audio Copy V1.3 from 2. September 2016
EAC extraction logfile from 14. June 2018, 18:58
John Williams / Star Wars - Episode I: The Phantom Menace: The Ultimate Soundtrack Collection CD 1
Used drive : ATAPI iHBS312 2 Adapter: 1 ID: 1
Read mode : SecureUtilize accurate stream : YesDefeat audio cache : YesMake use of C2 pointers : No
Read offset correction : 6Overread into Lead-In and Lead-Out : NoFill up missing offset samples with silence : YesDelete leading and trailing silent blocks : NoNull samples used in CRC calculations : YesUsed interface : Native Win32 interface for Win NT & 2000Gap handling : Appended to previous track
Used output format : User Defined EncoderSelected bitrate : 1024 kBit/sQuality : HighAdd ID3 tag : NoCommand line compressor : C:\Program Files\Exact Audio Copy\Flac\flac.exeAdditional command line options : -V -8 -T "Genre=%genre%" -T "Artist=%artist%" -T "Title=%title%" -T "Album=%albumtitle%" -T "Date=%year%" -T "Tracknumber=%tracknr%" -T "Comment=%comment%" %source%
TOC of the extracted CD
Track | Start | Length | Start sector | End sector --------------------------------------------------------- 1 | 0:00.00 | 2:55.43 | 0 | 13167 2 | 2:55.43 | 4:14.27 | 13168 | 32244 3 | 7:09.70 | 3:08.43 | 32245 | 46387 4 | 10:18.38 | 5:07.42 | 46388 | 69454 5 | 15:26.05 | 2:37.00 | 69455 | 81229 6 | 18:03.05 | 4:07.27 | 81230 | 99781 7 | 22:10.32 | 4:04.17 | 99782 | 118098 8 | 26:14.49 | 3:53.13 | 118099 | 135586 9 | 30:07.62 | 4:23.57 | 135587 | 155368 10 | 34:31.44 | 4:39.41 | 155369 | 176334 11 | 39:11.10 | 4:57.06 | 176335 | 198615 12 | 44:08.16 | 3:24.00 | 198616 | 213915 13 | 47:32.16 | 4:51.43 | 213916 | 235783 14 | 52:23.59 | 5:14.27 | 235784 | 259360 15 | 57:38.11 | 3:47.72 | 259361 | 276457 16 | 61:26.08 | 3:08.38 | 276458 | 290595 17 | 64:34.46 | 9:39.40 | 290596 | 334060
Track 1
Filename F:\torrent\Star Wars_The Ultimate Soundtrack Collection__John Williams 11 CD\CD 1 Episode I The Phantom Menace\score\01. John Williams - Star Wars Main Title and The Arrival at Naboo.wav
Pre-gap length 0:00:02.00
Peak level 96.9 % Extraction speed 5.1 X Track quality 100.0 % Test CRC AAB1149C Copy CRC AAB1149C Accurately ripped (confidence 34) [11827CCC] (AR v2) Copy OK
Track 2
Filename F:\torrent\Star Wars_The Ultimate Soundtrack Collection__John Williams 11 CD\CD 1 Episode I The Phantom Menace\score\02. John Williams - Duel of the Fates.wav
Peak level 96.3 % Extraction speed 5.9 X Track quality 100.0 % Test CRC 429D9181 Copy CRC 429D9181 Accurately ripped (confidence 34) [52951DF7] (AR v2) Copy OK
Track 3
Filename F:\torrent\Star Wars_The Ultimate Soundtrack Collection__John Williams 11 CD\CD 1 Episode I The Phantom Menace\score\03. John Williams - Anakin’s Theme.wav
Peak level 35.7 % Extraction speed 4.9 X Track quality 99.9 % Test CRC 1FC531C5 Copy CRC 1FC531C5 Accurately ripped (confidence 34) [45B12F13] (AR v2) Copy OK
Track 4
Filename F:\torrent\Star Wars_The Ultimate Soundtrack Collection__John Williams 11 CD\CD 1 Episode I The Phantom Menace\score\04. John Williams - Jar Jar’s Introduction and The Swim to Otoh Gunga.wav
Peak level 59.2 % Extraction speed 7.0 X Track quality 100.0 % Test CRC CEE59489 Copy CRC CEE59489 Accurately ripped (confidence 34) [A713D3CB] (AR v2) Copy OK
Track 5
Filename F:\torrent\Star Wars_The Ultimate Soundtrack Collection__John Williams 11 CD\CD 1 Episode I The Phantom Menace\score\05. John Williams - The Sith Spacecraft and The Droid Battle.wav
Peak level 98.2 % Extraction speed 5.2 X Track quality 99.9 % Test CRC 13F7D776 Copy CRC 13F7D776 Accurately ripped (confidence 34) [2F55F4DD] (AR v2) Copy OK
Track 6
Filename F:\torrent\Star Wars_The Ultimate Soundtrack Collection__John Williams 11 CD\CD 1 Episode I The Phantom Menace\score\06. John Williams - The Trip to the Naboo Temple and The Audience with Boss Nass.wav
Peak level 89.7 % Extraction speed 7.5 X Track quality 100.0 % Test CRC 382A65D2 Copy CRC 382A65D2 Accurately ripped (confidence 34) [A344F866] (AR v2) Copy OK
Track 7
Filename F:\torrent\Star Wars_The Ultimate Soundtrack Collection__John Williams 11 CD\CD 1 Episode I The Phantom Menace\score\07. John Williams - The Arrival at Tatooine and The Flag Parade.wav
Peak level 94.1 % Extraction speed 7.9 X Track quality 100.0 % Test CRC 5EBF6B09 Copy CRC 5EBF6B09 Accurately ripped (confidence 34) [118F274A] (AR v2) Copy OK
Track 8
Filename F:\torrent\Star Wars_The Ultimate Soundtrack Collection__John Williams 11 CD\CD 1 Episode I The Phantom Menace\score\08. John Williams - He Is the Chosen One.wav
Peak level 58.5 % Extraction speed 8.2 X Track quality 100.0 % Test CRC 7F68BA81 Copy CRC 7F68BA81 Accurately ripped (confidence 34) [9D17F0A6] (AR v2) Copy OK
Track 9
Filename F:\torrent\Star Wars_The Ultimate Soundtrack Collection__John Williams 11 CD\CD 1 Episode I The Phantom Menace\score\09. John Williams - Anakin Defeats Sebulba.wav
Peak level 92.8 % Extraction speed 8.7 X Track quality 100.0 % Test CRC 5AE97AE9 Copy CRC 5AE97AE9 Accurately ripped (confidence 34) [E7C28E14] (AR v2) Copy OK
Track 10
Filename F:\torrent\Star Wars_The Ultimate Soundtrack Collection__John Williams 11 CD\CD 1 Episode I The Phantom Menace\score\10. John Williams - Passage Through the Planet Core.wav
Peak level 77.9 % Extraction speed 7.7 X Track quality 99.9 % Test CRC 5199CDB9 Copy CRC 5199CDB9 Accurately ripped (confidence 34) [F3F9E39D] (AR v2) Copy OK
Track 11
Filename F:\torrent\Star Wars_The Ultimate Soundtrack Collection__John Williams 11 CD\CD 1 Episode I The Phantom Menace\score\11. John Williams - Watto’s Deal and Kids at Play.wav
Peak level 45.2 % Extraction speed 9.6 X Track quality 100.0 % Test CRC DE687138 Copy CRC DE687138 Accurately ripped (confidence 33) [BE255002] (AR v2) Copy OK
Track 12
Filename F:\torrent\Star Wars_The Ultimate Soundtrack Collection__John Williams 11 CD\CD 1 Episode I The Phantom Menace\score\12. John Williams - Panaka and the Queen’s Protectors.wav
Peak level 83.6 % Extraction speed 9.4 X Track quality 100.0 % Test CRC B5510F22 Copy CRC B5510F22 Accurately ripped (confidence 34) [59A9CEAF] (AR v2) Copy OK
Track 13
Filename F:\torrent\Star Wars_The Ultimate Soundtrack Collection__John Williams 11 CD\CD 1 Episode I The Phantom Menace\score\13. John Williams - Queen Amidala and The Naboo Palace.wav
Peak level 95.7 % Extraction speed 10.1 X Track quality 100.0 % Test CRC 288E509A Copy CRC 288E509A Accurately ripped (confidence 34) [B624FF3B] (AR v2) Copy OK
Track 14
Filename F:\torrent\Star Wars_The Ultimate Soundtrack Collection__John Williams 11 CD\CD 1 Episode I The Phantom Menace\score\14. John Williams - The Droid Invasion and The Appearance of Darth Maul.wav
Peak level 87.9 % Extraction speed 8.9 X Track quality 99.9 % Test CRC 763C554E Copy CRC 763C554E Accurately ripped (confidence 34) [9E3AC901] (AR v2) Copy OK
Track 15
Filename F:\torrent\Star Wars_The Ultimate Soundtrack Collection__John Williams 11 CD\CD 1 Episode I The Phantom Menace\score\15. John Williams - Qui‐Gon’s Noble End.wav
Peak level 74.7 % Extraction speed 10.3 X Track quality 100.0 % Test CRC F4D613DF Copy CRC F4D613DF Accurately ripped (confidence 34) [2B26C413] (AR v2) Copy OK
Track 16
Filename F:\torrent\Star Wars_The Ultimate Soundtrack Collection__John Williams 11 CD\CD 1 Episode I The Phantom Menace\score\16. John Williams - The High Council Meeting and Qui‐Gon’s Funeral.wav
Peak level 36.2 % Extraction speed 10.3 X Track quality 100.0 % Test CRC 8700CA64 Copy CRC 8700CA64 Accurately ripped (confidence 34) [DB22DEA6] (AR v2) Copy OK
Track 17
Filename F:\torrent\Star Wars_The Ultimate Soundtrack Collection__John Williams 11 CD\CD 1 Episode I The Phantom Menace\score\17. John Williams - Augie’s Great Municipal Band and End Credits.wav
Peak level 99.1 % Extraction speed 5.3 X Track quality 99.7 % Test CRC 800F0BA9 Copy CRC 800F0BA9 Accurately ripped (confidence 33) [78BC0054] (AR v2) Copy OK
All tracks accurately ripped
No errors occurred
End of status report
---- CUETools DB Plugin V2.1.6
[CTDB TOCID: JIwc1IvSidJBFtDZM0s0aUQejfQ-] foundSubmit result: JIwc1IvSidJBFtDZM0s0aUQejfQ- has been confirmedTrack | CTDB Status 1 | (136/136) Accurately ripped 2 | (136/136) Accurately ripped 3 | (136/136) Accurately ripped 4 | (136/136) Accurately ripped 5 | (136/136) Accurately ripped 6 | (136/136) Accurately ripped 7 | (136/136) Accurately ripped 8 | (136/136) Accurately ripped 9 | (135/136) Accurately ripped 10 | (136/136) Accurately ripped 11 | (136/136) Accurately ripped 12 | (136/136) Accurately ripped 13 | (136/136) Accurately ripped 14 | (136/136) Accurately ripped 15 | (135/136) Accurately ripped 16 | (136/136) Accurately ripped 17 | (134/136) Accurately ripped
==== Log checksum 08D69D21262BDF979AD2DE8BAF2CD4AFB5D8021E3746D567CDC37924EDB67444 ====

Содержание индексной карты (.CUE)

REM GENRE SoundtrackREM DATE 2016REM DISCID F4116611REM COMMENT "ExactAudioCopy v1.3"PERFORMER "John Williams"TITLE "Star Wars - Episode I: The Phantom Menace: The Ultimate Soundtrack Collection..."REM COMPOSER ""FILE "01. John Williams - Star Wars Main Title and The Arrival at Naboo.wav" WAVE TRACK 01 AUDIO TITLE "Star Wars Main Title and The Arrival at Naboo" PERFORMER "John Williams" REM COMPOSER "" ISRC USSM10504885 INDEX 01 00:00:00FILE "02. John Williams - Duel of the Fates.wav" WAVE TRACK 02 AUDIO TITLE "Duel of the Fates" PERFORMER "John Williams" REM COMPOSER "" ISRC USSM19900642 INDEX 01 00:00:00FILE "03. John Williams - Anakin’s Theme.wav" WAVE TRACK 03 AUDIO TITLE "Anakin’s Theme" PERFORMER "John Williams" REM COMPOSER "" ISRC USSM19900643 INDEX 01 00:00:00FILE "04. John Williams - Jar Jar’s Introduction and The Swim to Otoh Gunga.wav" WAVE TRACK 04 AUDIO TITLE "Jar Jar’s Introduction and The Swim to Otoh Gunga" PERFORMER "John Williams" REM COMPOSER "" ISRC USSM19900644 INDEX 01 00:00:00FILE "05. John Williams - The Sith Spacecraft and The Droid Battle.wav" WAVE TRACK 05 AUDIO TITLE "The Sith Spacecraft and The Droid Battle" PERFORMER "John Williams" REM COMPOSER "" ISRC USSM19900652 INDEX 01 00:00:00FILE "06. John Williams - The Trip to the Naboo Temple and The Audience with Boss Nass.wav" WAVE TRACK 06 AUDIO TITLE "The Trip to the Naboo Temple and The Audience with Boss Nass" PERFORMER "John Williams" REM COMPOSER "" ISRC USSM19900645 INDEX 01 00:00:00FILE "07. John Williams - The Arrival at Tatooine and The Flag Parade.wav" WAVE TRACK 07 AUDIO TITLE "The Arrival at Tatooine and The Flag Parade" PERFORMER "John Williams" REM COMPOSER "" ISRC USSM19900649 INDEX 01 00:00:00FILE "08. John Williams - He Is the Chosen One.wav" WAVE TRACK 08 AUDIO TITLE "He Is the Chosen One" PERFORMER "John Williams" REM COMPOSER "" ISRC USSM19900647 INDEX 01 00:00:00FILE "09. John Williams - Anakin Defeats Sebulba.wav" WAVE TRACK 09 AUDIO TITLE "Anakin Defeats Sebulba" PERFORMER "John Williams" REM COMPOSER "" ISRC USSM19900650 INDEX 01 00:00:00FILE "10. John Williams - Passage Through the Planet Core.wav" WAVE TRACK 10 AUDIO TITLE "Passage Through the Planet Core" PERFORMER "John Williams" REM COMPOSER "" ISRC USSM19900648 INDEX 01 00:00:00FILE "11. John Williams - Watto’s Deal and Kids at Play.wav" WAVE TRACK 11 AUDIO TITLE "Watto’s Deal and Kids at Play" PERFORMER "John Williams" REM COMPOSER "" ISRC USSM19900651 INDEX 01 00:00:00FILE "12. John Williams - Panaka and the Queen’s Protectors.wav" WAVE TRACK 12 AUDIO TITLE "Panaka and the Queen’s Protectors" PERFORMER "John Williams" REM COMPOSER "" ISRC USSM19900646 INDEX 01 00:00:00FILE "13. John Williams - Queen Amidala and The Naboo Palace.wav" WAVE TRACK 13 AUDIO TITLE "Queen Amidala and The Naboo Palace" PERFORMER "John Williams" REM COMPOSER "" ISRC USSM19900653 INDEX 01 00:00:00FILE "14. John Williams - The Droid Invasion and The Appearance of Darth Maul.wav" WAVE TRACK 14 AUDIO TITLE "The Droid Invasion and The Appearance of Darth Maul" PERFORMER "John Williams" REM COMPOSER "" ISRC USSM19900654 INDEX 01 00:00:00FILE "15. John Williams - Qui.Gon’s Noble End.wav" WAVE TRACK 15 AUDIO TITLE "Qui.Gon’s Noble End" PERFORMER "John Williams" REM COMPOSER "" ISRC USSM19900655 INDEX 01 00:00:00FILE "16. John Williams - The High Council Meeting and Qui.Gon’s Funeral.wav" WAVE TRACK 16 AUDIO TITLE "The High Council Meeting and Qui.Gon’s Funeral" PERFORMER "John Williams" REM COMPOSER "" ISRC USSM19900656 INDEX 01 00:00:00FILE "17. John Williams - Augie’s Great Municipal Band and End Credits.wav" WAVE TRACK 17 AUDIO TITLE "Augie’s Great Municipal Band and End Credits" PERFORMER "John Williams" REM COMPOSER "" ISRC USSM19900657 INDEX 01 00:00:00

DISC 2 – Episode II: Attack of the Clones

Треклист:
1. Star Wars Main Title And Ambush On Coruscant 3:48
2. Across The Stars (Love Theme From Star Wars: Episode II) 5:33
3. Zam The Assassin And The Chase Through Coruscant 11:07
4. Yoda And The Younglings 3:55
5. Departing Coruscant 1:45
6. Anakin And Padmé 3:56
7. Jango's Escape 3:48
8. The Meadow Picnic 4:14
9. Bounty Hunter's Pursuit 3:23
10. Return To Tatooine 6:57
11. The Tusken Camp And The Homestead 5:55
12. Love Pledge And The Arena 8:29
13. Confrontation With Count Dooku And Finale 10:44

Лог создания рипа

Exact Audio Copy V1.3 from 2. September 2016
EAC extraction logfile from 14. June 2018, 20:56
John Williams / Star Wars Episode II: Attack of the Clones: The Ultimate Soundtrack Collection CD 2
Used drive : ATAPI iHBS312 2 Adapter: 1 ID: 1
Read mode : SecureUtilize accurate stream : YesDefeat audio cache : YesMake use of C2 pointers : No
Read offset correction : 6Overread into Lead-In and Lead-Out : NoFill up missing offset samples with silence : YesDelete leading and trailing silent blocks : NoNull samples used in CRC calculations : YesUsed interface : Native Win32 interface for Win NT & 2000Gap handling : Appended to previous track
Used output format : User Defined EncoderSelected bitrate : 1024 kBit/sQuality : HighAdd ID3 tag : NoCommand line compressor : C:\Program Files\Exact Audio Copy\Flac\flac.exeAdditional command line options : -V -8 -T "Genre=%genre%" -T "Artist=%artist%" -T "Title=%title%" -T "Album=%albumtitle%" -T "Date=%year%" -T "Tracknumber=%tracknr%" -T "Comment=%comment%" %source%
TOC of the extracted CD
Track | Start | Length | Start sector | End sector --------------------------------------------------------- 1 | 0:00.00 | 3:47.64 | 0 | 17088 2 | 3:47.64 | 5:32.47 | 17089 | 42035 3 | 9:20.36 | 11:07.31 | 42036 | 92091 4 | 20:27.67 | 3:55.20 | 92092 | 109736 5 | 24:23.12 | 1:45.08 | 109737 | 117619 6 | 26:08.20 | 3:56.19 | 117620 | 135338 7 | 30:04.39 | 3:48.20 | 135339 | 152458 8 | 33:52.59 | 4:14.29 | 152459 | 171537 9 | 38:07.13 | 3:23.10 | 171538 | 186772 10 | 41:30.23 | 6:56.55 | 186773 | 218027 11 | 48:27.03 | 5:54.49 | 218028 | 244626 12 | 54:21.52 | 8:29.04 | 244627 | 282805 13 | 62:50.56 | 10:44.01 | 282806 | 331106
Track 1
Filename F:\torrent\Star Wars_The Ultimate Soundtrack Collection__John Williams 11 CD\CD 2 Episode II Attack of the Clones\score\01. John Williams - Star Wars Main Title and Ambush on Coruscant.wav
Pre-gap length 0:00:02.00
Peak level 77.8 % Extraction speed 1.1 X Track quality 100.0 % Test CRC 1E0EAC49 Copy CRC 1E0EAC49 Accurately ripped (confidence 33) [14D38E87] (AR v2) Copy OK
Track 2
Filename F:\torrent\Star Wars_The Ultimate Soundtrack Collection__John Williams 11 CD\CD 2 Episode II Attack of the Clones\score\02. John Williams - Across the Stars (Love Theme from Star Wars- Episode II).wav
Peak level 68.1 % Extraction speed 1.3 X Track quality 99.9 % Test CRC EA780B0A Copy CRC EA780B0A Accurately ripped (confidence 33) [746AD71C] (AR v2) Copy OK
Track 3
Filename F:\torrent\Star Wars_The Ultimate Soundtrack Collection__John Williams 11 CD\CD 2 Episode II Attack of the Clones\score\03. John Williams - Zam the Assassin and The Chase Through Coruscant.wav
Peak level 94.2 % Extraction speed 1.6 X Track quality 100.0 % Test CRC C4D6E466 Copy CRC C4D6E466 Accurately ripped (confidence 33) [1EB80AE3] (AR v2) Copy OK
Track 4
Filename F:\torrent\Star Wars_The Ultimate Soundtrack Collection__John Williams 11 CD\CD 2 Episode II Attack of the Clones\score\04. John Williams - Yoda and the Younglings.wav
Peak level 59.0 % Extraction speed 1.6 X Track quality 100.0 % Test CRC F9A3DBD4 Copy CRC F9A3DBD4 Accurately ripped (confidence 33) [2BC1F46B] (AR v2) Copy OK
Track 5
Filename F:\torrent\Star Wars_The Ultimate Soundtrack Collection__John Williams 11 CD\CD 2 Episode II Attack of the Clones\score\05. John Williams - Departing Coruscant.wav
Peak level 80.4 % Extraction speed 1.4 X Track quality 100.0 % Test CRC 76DCB416 Copy CRC 76DCB416 Accurately ripped (confidence 33) [C99F3751] (AR v2) Copy OK
Track 6
Filename F:\torrent\Star Wars_The Ultimate Soundtrack Collection__John Williams 11 CD\CD 2 Episode II Attack of the Clones\score\06. John Williams - Anakin and Padmé.wav
Peak level 87.1 % Extraction speed 1.8 X Track quality 100.0 % Test CRC C66EFCF1 Copy CRC C66EFCF1 Accurately ripped (confidence 33) [4DA8BE18] (AR v2) Copy OK
Track 7
Filename F:\torrent\Star Wars_The Ultimate Soundtrack Collection__John Williams 11 CD\CD 2 Episode II Attack of the Clones\score\07. John Williams - Jango’s Escape.wav
Peak level 92.0 % Extraction speed 1.8 X Track quality 100.0 % Test CRC 4497C245 Copy CRC 4497C245 Accurately ripped (confidence 33) [819A1D65] (AR v2) Copy OK
Track 8
Filename F:\torrent\Star Wars_The Ultimate Soundtrack Collection__John Williams 11 CD\CD 2 Episode II Attack of the Clones\score\08. John Williams - The Meadow Picnic.wav
Peak level 50.2 % Extraction speed 1.9 X Track quality 100.0 % Test CRC D650B031 Copy CRC D650B031 Accurately ripped (confidence 33) [42A5F125] (AR v2) Copy OK
Track 9
Filename F:\torrent\Star Wars_The Ultimate Soundtrack Collection__John Williams 11 CD\CD 2 Episode II Attack of the Clones\score\09. John Williams - Bounty Hunter’s Pursuit.wav
Peak level 83.8 % Extraction speed 1.9 X Track quality 100.0 % Test CRC FAB26F0C Copy CRC FAB26F0C Accurately ripped (confidence 33) [4E2DA464] (AR v2) Copy OK
Track 10
Filename F:\torrent\Star Wars_The Ultimate Soundtrack Collection__John Williams 11 CD\CD 2 Episode II Attack of the Clones\score\10. John Williams - Return to Tatooine.wav
Peak level 93.1 % Extraction speed 2.2 X Track quality 100.0 % Test CRC 03D20E7A Copy CRC 03D20E7A Accurately ripped (confidence 32) [0BA34EDB] (AR v2) Copy OK
Track 11
Filename F:\torrent\Star Wars_The Ultimate Soundtrack Collection__John Williams 11 CD\CD 2 Episode II Attack of the Clones\score\11. John Williams - The Tusken Camp and The Homestead.wav
Peak level 85.1 % Extraction speed 2.2 X Track quality 100.0 % Test CRC B131F4A9 Copy CRC B131F4A9 Accurately ripped (confidence 32) [9FF6BAC4] (AR v2) Copy OK
Track 12
Filename F:\torrent\Star Wars_The Ultimate Soundtrack Collection__John Williams 11 CD\CD 2 Episode II Attack of the Clones\score\12. John Williams - Love Pledge and The Arena.wav
Peak level 94.1 % Extraction speed 2.4 X Track quality 100.0 % Test CRC F78F4CF7 Copy CRC F78F4CF7 Accurately ripped (confidence 33) [7DE9A9B9] (AR v2) Copy OK
Track 13
Filename F:\torrent\Star Wars_The Ultimate Soundtrack Collection__John Williams 11 CD\CD 2 Episode II Attack of the Clones\score\13. John Williams - Confrontation With Count Dooku and Finale.wav
Peak level 94.2 % Extraction speed 2.6 X Track quality 100.0 % Test CRC 0DC7F875 Copy CRC 0DC7F875 Accurately ripped (confidence 34) [3626A6AE] (AR v2) Copy OK
All tracks accurately ripped
No errors occurred
End of status report
---- CUETools DB Plugin V2.1.6
[CTDB TOCID: soNIkrdMWQdrIcyMPBECK3YjK_g-] foundSubmit result: soNIkrdMWQdrIcyMPBECK3YjK_g- has been confirmedTrack | CTDB Status 1 | (127/127) Accurately ripped 2 | (127/127) Accurately ripped 3 | (127/127) Accurately ripped 4 | (127/127) Accurately ripped 5 | (127/127) Accurately ripped 6 | (127/127) Accurately ripped 7 | (127/127) Accurately ripped 8 | (127/127) Accurately ripped 9 | (127/127) Accurately ripped 10 | (126/127) Accurately ripped 11 | (127/127) Accurately ripped 12 | (127/127) Accurately ripped 13 | (126/127) Accurately ripped
==== Log checksum 02BAF1D420E78D75BED830D6D017ECC1A80FE9C73586001B45576CCFCC76BD1F ====

Содержание индексной карты (.CUE)

REM GENRE SoundtrackREM DATE 2016REM DISCID BA113E0DREM COMMENT "ExactAudioCopy v1.3"PERFORMER "John Williams"TITLE "Star Wars Episode II: Attack of the Clones: The Ultimate Soundtrack Collectio..."REM COMPOSER ""FILE "01. John Williams - Star Wars Main Title and Ambush on Coruscant.wav" WAVE TRACK 01 AUDIO TITLE "Star Wars Main Title and Ambush on Coruscant" PERFORMER "John Williams" REM COMPOSER "" ISRC USSM11505680 INDEX 01 00:00:00FILE "02. John Williams - Across the Stars (Love Theme from Star Wars- Episode II).wav" WAVE TRACK 02 AUDIO TITLE "Across the Stars (Love Theme from Star Wars: Episode II)" PERFORMER "John Williams" REM COMPOSER "" ISRC USSM11505681 INDEX 01 00:00:00FILE "03. John Williams - Zam the Assassin and The Chase Through Coruscant.wav" WAVE TRACK 03 AUDIO TITLE "Zam the Assassin and The Chase Through Coruscant" PERFORMER "John Williams" REM COMPOSER "" ISRC USSM11505682 INDEX 01 00:00:00FILE "04. John Williams - Yoda and the Younglings.wav" WAVE TRACK 04 AUDIO TITLE "Yoda and the Younglings" PERFORMER "John Williams" REM COMPOSER "" ISRC USSM11505683 INDEX 01 00:00:00FILE "05. John Williams - Departing Coruscant.wav" WAVE TRACK 05 AUDIO TITLE "Departing Coruscant" PERFORMER "John Williams" REM COMPOSER "" ISRC USSM11505684 INDEX 01 00:00:00FILE "06. John Williams - Anakin and Padme.wav" WAVE TRACK 06 AUDIO TITLE "Anakin and Padme" PERFORMER "John Williams" REM COMPOSER "" ISRC USSM11505685 INDEX 01 00:00:00FILE "07. John Williams - Jango’s Escape.wav" WAVE TRACK 07 AUDIO TITLE "Jango’s Escape" PERFORMER "John Williams" REM COMPOSER "" ISRC USSM11505686 INDEX 01 00:00:00FILE "08. John Williams - The Meadow Picnic.wav" WAVE TRACK 08 AUDIO TITLE "The Meadow Picnic" PERFORMER "John Williams" REM COMPOSER "" ISRC USSM11505687 INDEX 01 00:00:00FILE "09. John Williams - Bounty Hunter’s Pursuit.wav" WAVE TRACK 09 AUDIO TITLE "Bounty Hunter’s Pursuit" PERFORMER "John Williams" REM COMPOSER "" ISRC USSM11505688 INDEX 01 00:00:00FILE "10. John Williams - Return to Tatooine.wav" WAVE TRACK 10 AUDIO TITLE "Return to Tatooine" PERFORMER "John Williams" REM COMPOSER "" ISRC USSM11505689 INDEX 01 00:00:00FILE "11. John Williams - The Tusken Camp and The Homestead.wav" WAVE TRACK 11 AUDIO TITLE "The Tusken Camp and The Homestead" PERFORMER "John Williams" REM COMPOSER "" ISRC USSM11505690 INDEX 01 00:00:00FILE "12. John Williams - Love Pledge and The Arena.wav" WAVE TRACK 12 AUDIO TITLE "Love Pledge and The Arena" PERFORMER "John Williams" REM COMPOSER "" ISRC USSM11505691 INDEX 01 00:00:00FILE "13. John Williams - Confrontation With Count Dooku and Finale.wav" WAVE TRACK 13 AUDIO TITLE "Confrontation With Count Dooku and Finale" PERFORMER "John Williams" REM COMPOSER "" ISRC USSM11505692 INDEX 01 00:00:00

DISC 3 – Episode III: Revenge of the Sith

Треклист:
1. Star Wars And Revenge Of The Sith 7:33
2. Anakin's Dream 4:46
3. Battle Of The Heroes 3:42
4. Anakin's Betrayal4:04
5. General Grievous 4:07
6. Palpatine's Teachings 5:25
7. Grievous And The Droids 3:28
8. Padmé's Ruminations 3:16
9. Anakin Vs. Obi-Wan 3:57
10. Anakin's Dark Deeds 4:05
11. Enter Lord Vader 4:14
12. The Immolation Scene 2:42
13. Grievous Speaks To Lord Sidious 2:49
14. The Birth Of The Twins And Padme's Destiny 3:37
15. A New Hope And End Credits 13:07

Лог создания рипа

Exact Audio Copy V1.3 from 2. September 2016
EAC extraction logfile from 14. June 2018, 21:35
John Williams / Star Wars pisode III: Revenge of the Sith: The Ultimate Soundtrack Collection CD 3
Used drive : ATAPI iHBS312 2 Adapter: 1 ID: 1
Read mode : SecureUtilize accurate stream : YesDefeat audio cache : YesMake use of C2 pointers : No
Read offset correction : 6Overread into Lead-In and Lead-Out : NoFill up missing offset samples with silence : YesDelete leading and trailing silent blocks : NoNull samples used in CRC calculations : YesUsed interface : Native Win32 interface for Win NT & 2000Gap handling : Appended to previous track
Used output format : User Defined EncoderSelected bitrate : 1024 kBit/sQuality : HighAdd ID3 tag : NoCommand line compressor : C:\Program Files\Exact Audio Copy\Flac\flac.exeAdditional command line options : -V -8 -T "Genre=%genre%" -T "Artist=%artist%" -T "Title=%title%" -T "Album=%albumtitle%" -T "Date=%year%" -T "Tracknumber=%tracknr%" -T "Comment=%comment%" %source%
TOC of the extracted CD
Track | Start | Length | Start sector | End sector --------------------------------------------------------- 1 | 0:00.00 | 7:32.72 | 0 | 33971 2 | 7:32.72 | 4:45.40 | 33972 | 55386 3 | 12:18.37 | 3:42.24 | 55387 | 72060 4 | 16:00.61 | 4:03.38 | 72061 | 90323 5 | 20:04.24 | 4:07.18 | 90324 | 108866 6 | 24:11.42 | 5:25.03 | 108867 | 133244 7 | 29:36.45 | 3:27.49 | 133245 | 148818 8 | 33:04.19 | 3:16.33 | 148819 | 163551 9 | 36:20.52 | 3:57.20 | 163552 | 181346 10 | 40:17.72 | 4:05.22 | 181347 | 199743 11 | 44:23.19 | 4:14.06 | 199744 | 218799 12 | 48:37.25 | 2:42.09 | 218800 | 230958 13 | 51:19.34 | 2:49.28 | 230959 | 243661 14 | 54:08.62 | 3:37.08 | 243662 | 259944 15 | 57:45.70 | 13:07.01 | 259945 | 318970
Track 1
Filename F:\torrent\Star Wars_The Ultimate Soundtrack Collection__John Williams 11 CD\CD 3 Episode III Revenge of the Sith\score\01. John Williams - Star Wars and The Revenge of the Sith (Medley).wav
Pre-gap length 0:00:02.00
Peak level 93.3 % Extraction speed 4.0 X Track quality 100.0 % Test CRC 2F62120A Copy CRC 2F62120A Accurately ripped (confidence 33) [8202E8AC] (AR v2) Copy OK
Track 2
Filename F:\torrent\Star Wars_The Ultimate Soundtrack Collection__John Williams 11 CD\CD 3 Episode III Revenge of the Sith\score\02. John Williams - Anakin’s Dream.wav
Peak level 88.2 % Extraction speed 3.9 X Track quality 99.9 % Test CRC CF25EBFE Copy CRC CF25EBFE Accurately ripped (confidence 33) [0BAD460C] (AR v2) Copy OK
Track 3
Filename F:\torrent\Star Wars_The Ultimate Soundtrack Collection__John Williams 11 CD\CD 3 Episode III Revenge of the Sith\score\03. John Williams - Battle of the Heroes.wav
Peak level 90.3 % Extraction speed 4.5 X Track quality 100.0 % Test CRC 79C5D26C Copy CRC 79C5D26C Accurately ripped (confidence 32) [44C6BA73] (AR v2) Copy OK
Track 4
Filename F:\torrent\Star Wars_The Ultimate Soundtrack Collection__John Williams 11 CD\CD 3 Episode III Revenge of the Sith\score\04. John Williams - Anakin’s Betrayal.wav
Peak level 85.8 % Extraction speed 4.9 X Track quality 100.0 % Test CRC 5F9FD581 Copy CRC 5F9FD581 Accurately ripped (confidence 33) [F9B252BB] (AR v2) Copy OK
Track 5
Filename F:\torrent\Star Wars_The Ultimate Soundtrack Collection__John Williams 11 CD\CD 3 Episode III Revenge of the Sith\score\05. John Williams - General Grievous.wav
Peak level 93.3 % Extraction speed 5.1 X Track quality 100.0 % Test CRC 9BC52BD5 Copy CRC 9BC52BD5 Accurately ripped (confidence 33) [ED37A690] (AR v2) Copy OK
Track 6
Filename F:\torrent\Star Wars_The Ultimate Soundtrack Collection__John Williams 11 CD\CD 3 Episode III Revenge of the Sith\score\06. John Williams - Palpatine’s Teachings.wav
Peak level 89.5 % Extraction speed 5.1 X Track quality 99.9 % Test CRC 4CB0D3E7 Copy CRC 4CB0D3E7 Accurately ripped (confidence 33) [C7DBF82D] (AR v2) Copy OK
Track 7
Filename F:\torrent\Star Wars_The Ultimate Soundtrack Collection__John Williams 11 CD\CD 3 Episode III Revenge of the Sith\score\07. John Williams - Grievous and the Droids.wav
Peak level 90.1 % Extraction speed 5.5 X Track quality 100.0 % Test CRC 83A2C994 Copy CRC 83A2C994 Accurately ripped (confidence 33) [1FE7EC07] (AR v2) Copy OK
Track 8
Filename F:\torrent\Star Wars_The Ultimate Soundtrack Collection__John Williams 11 CD\CD 3 Episode III Revenge of the Sith\score\08. John Williams - Padmé’s Ruminations.wav
Peak level 50.4 % Extraction speed 5.7 X Track quality 100.0 % Test CRC F23FF94D Copy CRC F23FF94D Accurately ripped (confidence 33) [CDF04FC4] (AR v2) Copy OK
Track 9
Filename F:\torrent\Star Wars_The Ultimate Soundtrack Collection__John Williams 11 CD\CD 3 Episode III Revenge of the Sith\score\09. John Williams - Anakin Vs. Obi‐Wan.wav
Peak level 90.1 % Extraction speed 6.0 X Track quality 100.0 % Test CRC 1931A4D0 Copy CRC 1931A4D0 Accurately ripped (confidence 33) [F22CE663] (AR v2) Copy OK
Track 10
Filename F:\torrent\Star Wars_The Ultimate Soundtrack Collection__John Williams 11 CD\CD 3 Episode III Revenge of the Sith\score\10. John Williams - Anakin’s Dark Deeds.wav
Peak level 90.2 % Extraction speed 6.3 X Track quality 100.0 % Test CRC D61AAF44 Copy CRC D61AAF44 Accurately ripped (confidence 33) [F706F3CB] (AR v2) Copy OK
Track 11
Filename F:\torrent\Star Wars_The Ultimate Soundtrack Collection__John Williams 11 CD\CD 3 Episode III Revenge of the Sith\score\11. John Williams - Enter Lord Vader.wav
Peak level 82.8 % Extraction speed 6.5 X Track quality 100.0 % Test CRC 8CE31E68 Copy CRC 8CE31E68 Accurately ripped (confidence 33) [D2D5A682] (AR v2) Copy OK
Track 12
Filename F:\torrent\Star Wars_The Ultimate Soundtrack Collection__John Williams 11 CD\CD 3 Episode III Revenge of the Sith\score\12. John Williams - The Immolation Scene.wav
Peak level 58.3 % Extraction speed 6.2 X Track quality 100.0 % Test CRC 00F92CBA Copy CRC 00F92CBA Accurately ripped (confidence 33) [B70CD6E6] (AR v2) Copy OK
Track 13
Filename F:\torrent\Star Wars_The Ultimate Soundtrack Collection__John Williams 11 CD\CD 3 Episode III Revenge of the Sith\score\13. John Williams - Grievous Speaks to Lord Sidious.wav
Peak level 90.1 % Extraction speed 6.4 X Track quality 100.0 % Test CRC CC6328C8 Copy CRC CC6328C8 Accurately ripped (confidence 33) [FD5E1B0D] (AR v2) Copy OK
Track 14
Filename F:\torrent\Star Wars_The Ultimate Soundtrack Collection__John Williams 11 CD\CD 3 Episode III Revenge of the Sith\score\14. John Williams - The Birth of the Twins and Padmé’s Destiny (Medley).wav
Peak level 74.9 % Extraction speed 5.9 X Track quality 99.9 % Test CRC D2622D49 Copy CRC D2622D49 Accurately ripped (confidence 33) [5DA30E66] (AR v2) Copy OK
Track 15
Filename F:\torrent\Star Wars_The Ultimate Soundtrack Collection__John Williams 11 CD\CD 3 Episode III Revenge of the Sith\score\15. John Williams - A New Hope and End Credits (Medley).wav
Peak level 90.1 % Extraction speed 8.0 X Track quality 100.0 % Test CRC D5AE3A70 Copy CRC D5AE3A70 Accurately ripped (confidence 33) [D1ECAE69] (AR v2) Copy OK
All tracks accurately ripped
No errors occurred
End of status report
---- CUETools DB Plugin V2.1.6
[CTDB TOCID: bPHrmEhDirI7o2VbzqckmSo1OV8-] foundSubmit result: bPHrmEhDirI7o2VbzqckmSo1OV8- has been confirmedTrack | CTDB Status 1 | (129/129) Accurately ripped 2 | (129/129) Accurately ripped 3 | (129/129) Accurately ripped 4 | (129/129) Accurately ripped 5 | (129/129) Accurately ripped 6 | (129/129) Accurately ripped 7 | (129/129) Accurately ripped 8 | (129/129) Accurately ripped 9 | (129/129) Accurately ripped 10 | (129/129) Accurately ripped 11 | (129/129) Accurately ripped 12 | (129/129) Accurately ripped 13 | (129/129) Accurately ripped 14 | (129/129) Accurately ripped 15 | (128/129) Accurately ripped
==== Log checksum 2C59836A1A72A3752A80C6FC51C0282A950DF04B431C578B6F3EBA9BAB3FA826 ====

Содержание индексной карты (.CUE)

REM GENRE SoundtrackREM DATE 2016REM DISCID DF109C0FREM COMMENT "ExactAudioCopy v1.3"PERFORMER "John Williams"TITLE "Star Wars pisode III: Revenge of the Sith: The Ultimate Soundtrack Collection..."REM COMPOSER ""FILE "01. John Williams - Star Wars and The Revenge of the Sith (Medley).wav" WAVE TRACK 01 AUDIO TITLE "Star Wars and The Revenge of the Sith (Medley)" PERFORMER "John Williams" REM COMPOSER "" ISRC USSM11505693 INDEX 01 00:00:00FILE "02. John Williams - Anakin’s Dream.wav" WAVE TRACK 02 AUDIO TITLE "Anakin’s Dream" PERFORMER "John Williams" REM COMPOSER "" ISRC USSM11505694 INDEX 01 00:00:00FILE "03. John Williams - Battle of the Heroes.wav" WAVE TRACK 03 AUDIO TITLE "Battle of the Heroes" PERFORMER "John Williams" REM COMPOSER "" ISRC USSM11505695 INDEX 01 00:00:00FILE "04. John Williams - Anakin’s Betrayal.wav" WAVE TRACK 04 AUDIO TITLE "Anakin’s Betrayal" PERFORMER "John Williams" REM COMPOSER "" ISRC USSM11505696 INDEX 01 00:00:00FILE "05. John Williams - General Grievous.wav" WAVE TRACK 05 AUDIO TITLE "General Grievous" PERFORMER "John Williams" REM COMPOSER "" ISRC USSM11505697 INDEX 01 00:00:00FILE "06. John Williams - Palpatine’s Teachings.wav" WAVE TRACK 06 AUDIO TITLE "Palpatine’s Teachings" PERFORMER "John Williams" REM COMPOSER "" ISRC USSM11505698 INDEX 01 00:00:00FILE "07. John Williams - Grievous and the Droids.wav" WAVE TRACK 07 AUDIO TITLE "Grievous and the Droids" PERFORMER "John Williams" REM COMPOSER "" ISRC USSM11505699 INDEX 01 00:00:00FILE "08. John Williams - Padme’s Ruminations.wav" WAVE TRACK 08 AUDIO TITLE "Padme’s Ruminations" PERFORMER "John Williams" REM COMPOSER "" ISRC USSM11505700 INDEX 01 00:00:00FILE "09. John Williams - Anakin Vs. Obi.Wan.wav" WAVE TRACK 09 AUDIO TITLE "Anakin Vs. Obi.Wan" PERFORMER "John Williams" REM COMPOSER "" ISRC USSM11505701 INDEX 01 00:00:00FILE "10. John Williams - Anakin’s Dark Deeds.wav" WAVE TRACK 10 AUDIO TITLE "Anakin’s Dark Deeds" PERFORMER "John Williams" REM COMPOSER "" ISRC USSM11505702 INDEX 01 00:00:00FILE "11. John Williams - Enter Lord Vader.wav" WAVE TRACK 11 AUDIO TITLE "Enter Lord Vader" PERFORMER "John Williams" REM COMPOSER "" ISRC USSM11505703 INDEX 01 00:00:00FILE "12. John Williams - The Immolation Scene.wav" WAVE TRACK 12 AUDIO TITLE "The Immolation Scene" PERFORMER "John Williams" REM COMPOSER "" ISRC USSM11505704 INDEX 01 00:00:00FILE "13. John Williams - Grievous Speaks to Lord Sidious.wav" WAVE TRACK 13 AUDIO TITLE "Grievous Speaks to Lord Sidious" PERFORMER "John Williams" REM COMPOSER "" ISRC USSM11505705 INDEX 01 00:00:00FILE "14. John Williams - The Birth of the Twins and Padme’s Destiny (Medley).wav" WAVE TRACK 14 AUDIO TITLE "The Birth of the Twins and Padme’s Destiny (Medley)" PERFORMER "John Williams" REM COMPOSER "" ISRC USSM11505706 INDEX 01 00:00:00FILE "15. John Williams - A New Hope and End Credits (Medley).wav" WAVE TRACK 15 AUDIO TITLE "A New Hope and End Credits (Medley)" PERFORMER "John Williams" REM COMPOSER "" ISRC USSM11505707 INDEX 01 00:00:00
DISC 4 DVD – Star Wars: A Musical Journey находится здесь


[torrentc.info]_t_5575220.torrent
Торрент: Зарегистрирован ·  [ 2018-06-21 00:13 ] ·  c469a64c6deebe977b1ed996193f9f37dec2a59e

42 KB

Статус: проверено
Скачан: 0 раз
Размер: 3.39 GB
Оценка: 
(Голосов: 0)
Сказали спасибо: 0  Спасибо
Похожие темы
[Профиль]    [ЛС]
Показать сообщения:    
Ответить на тему

Текущее время: Сегодня 23:11

Часовой пояс: GMT + 7



Вы не можете начинать темы
Вы не можете отвечать на сообщения
Вы не можете редактировать свои сообщения
Вы не можете удалять свои сообщения
Вы не можете голосовать в опросах
Вы не можете прикреплять файлы к сообщениям
Вы можете скачивать файлы