Такой позор / Пропавшие миллионы / Этот грязный негодяй Шейм / Самый неслыханный позор / A Low Down Dirty Shame (Кинен Айвори Уайанс / Keenen Ivory Wayans) [1994, США, боевик, комедия, VHSRip] [Full Screen / Promo Copy] AVO (Антон Алексеев)

Ответить на тему
Статистика раздачи [Обновить пиров]
Размер:  1.37 GB   |    Зарегистрирован:  5 месяцев 21 день   |    Скачан:  0 раз

Полного источника не было: Никогда

 
   
 
 
 
Автор Сообщение

torrentc.info

Создавать темы 19-Июн-2018 11:39

[Цитировать]

Такой позор / Пропавшие миллионы / Этот грязный негодяй Шейм / Самый неслыханный позор / A Low Down Dirty Shame
[Full Screen / Promo Copy]
«He's armed and dangerously funny»
Страна: США
Жанр: боевик, комедия
Год выхода: 1994
Продолжительность: 01:40:20
Перевод: Авторский (одноголосый закадровый) Антон Алексеев
Субтитры: нет
Режиссер: Кинен Айвори Уайанс / Keenen Ivory Wayans
В ролях: Кинен Айвори Уайанс, Чарльз С. Даттон, Джада Пинкетт Смит, Салли Ричардсон-Уитфилд, Эндрю Дивофф, Коруин Хоукинс, Гэри Сервантес, Грегори Сьерра, Ким Уайанс, Эндрю Шайфер
Описание: Бывший полицейский Шейм занимается опасными частными расследованиями, от ведения которых отказываются все прочие. Он всегда на линии огня и на дистанции удара, однако ему удаётся выходить живым из любых переделок.
Этими его качествами решил воспользоваться его старый друг, предложивший Шейму найти пропавшие миллионы. И все прошлые переделки оказываются детской забавой в сравнении с этим новым делом.
Доп. информация: Оцифровка VHS (личный архив) и получение VHSRip alenavova
Эксклюзив для Torrentc. При размещении данного релиза на других сайтах ссылка на автора alenavova обязательна.


Сэмпл: https://yadi.sk/i/U2PTtbsz3Y5sUi
Качество видео: VHSRip
Формат файла: AVI
Видео: 704x528 (1.33:1), 25 fps, XviD build 73 ~1750 kbps avg, 0.19 bit/pixel
Аудио: 48 kHz, AC3 Dolby Digital, 2/0 (L,R) ch, ~192 kbps
MediaInfo
Такой позор - A Low Down Dirty Shame [by alenavova].aviFormat : AVIFormat/Info : Audio Video InterleaveFile size : 1.37 GiBDuration : 1 h 40 minOverall bit rate : 1 952 kb/sMovie name : Такой позор - A Low Down Dirty Shame [by alenavova]Director : by alenavovaWriting application : VirtualDubMod 1.5.10.3 | www.virtualdub-fr.org || (build 2550/release)Copyright : Edich2Comment : Torrentc
VideoID : 0Format : MPEG-4 VisualFormat profile : Advanced [email protected]Format settings : BVOP2 / Custom MatrixFormat settings, BVOP : 2Format settings, QPel : NoFormat settings, GMC : No warppointsFormat settings, Matrix : CustomCodec ID : XVIDCodec ID/Hint : XviDDuration : 1 h 40 minBit rate : 1 751 kb/sWidth : 704 pixelsHeight : 528 pixelsDisplay aspect ratio : 4:3Frame rate : 25.000 FPSColor space : YUVChroma subsampling : 4:2:0Bit depth : 8 bitsScan type : ProgressiveCompression mode : LossyBits/(Pixel*Frame) : 0.188Stream size : 1.23 GiB (90%)Writing library : XviD 73
AudioID : 1Format : AC-3Format/Info : Audio Coding 3Codec ID : 2000Duration : 1 h 40 minBit rate mode : ConstantBit rate : 192 kb/sChannel(s) : 2 channelsChannel positions : Front: L RSampling rate : 48.0 kHzFrame rate : 31.250 FPS (1536 SPF)Bit depth : 16 bitsCompression mode : LossyStream size : 138 MiB (10%)Alignment : Split accross interleavesInterleave, duration : 40 ms (1.00 video frame)Interleave, preload duratio : 500 msService kind : Complete Main

Скриншоты





[torrentc.info]_t_5576424.torrent
Торрент: Зарегистрирован ·  [ 2018-06-19 11:39 ] ·  76238e481ae41d634449973b6b3ec8faecbb7f39

14 KB

Статус: проверено
Скачан: 0 раз
Размер: 1.37 GB
Оценка: 
(Голосов: 0)
Сказали спасибо: 0  Спасибо
Похожие темы
[Профиль]    [ЛС]
Показать сообщения:    
Ответить на тему

Текущее время: Сегодня 18:27

Часовой пояс: GMT + 7



Вы не можете начинать темы
Вы не можете отвечать на сообщения
Вы не можете редактировать свои сообщения
Вы не можете удалять свои сообщения
Вы не можете голосовать в опросах
Вы не можете прикреплять файлы к сообщениям
Вы можете скачивать файлы