Декамерон / Il Decameron (Пьер Паоло Пазолини / Pier Paolo Pasolini) [1971, Италия, драма, комедия, эротика, BDRip] AVO (Юрий Сербин)

Ответить на тему
Статистика раздачи [Обновить пиров]
Размер:  1.47 GB   |    Зарегистрирован:  5 месяцев 23 дня   |    Скачан:  0 раз

Полного источника не было: Никогда

 
   
 
 
 
Автор Сообщение

torrentc.info

Создавать темы 17-Июн-2018 23:16

[Цитировать]

Декамерон / Il Decameron
Страна: Италия
Жанр: драма, комедия, эротика
Год выхода: 1971
Продолжительность: 01:51:05
Перевод: Авторский (одноголосый закадровый) Юрий Сербин
Субтитры: нет
Режиссер: Пьер Паоло Пазолини / Pier Paolo Pasolini
В ролях: Франко Читти, Нинетто Даволи, Йован Йованович, Винченцо Амато, Анджела Люче, Джузеппе Дзигайна, Винченцо Кристо, Пьер Паоло Пазолини, Джорджо Иовине
Описание: Художник Джотто странствует по дорогам Италии эпохи зарождающегося Ренессанса в поисках гармонии и истины Джотто становится свидетелем самых разных жизненных историй и жадно вбирает в себя во впечатления от изменяющейся, многоликой реальности. Эта реальность — веселая или печальная, суровая или фривольная наполнена мощной стихией любви и жажды жизни, торжествующих вопреки многовековым предрассудкам и запретам....
Доп. информация: Выражаю огромную благодарность Нордеру за синхронизацию звуковой дорожки.

Сэмпл: http://multi-up.com/1200865
Качество видео: BDRip (Источник: Torrentc BDRemux 1080p)
Формат файла: AVI
Видео: XviD 73, 720x384, (1,85:1), 23,976 fps, 1691 Кбит/с, 8 бит, 0.26 bit/pixel
Аудио: Русский (АС3, 2 ch (Front: L R), 48,0 KHz, 192 Kbps)

MediaInfo

ОбщееПолное имя : H:\Фильмы на трекер\Декамерон (драма, комедия 1971 год).aviФормат файла : AVIФормат файла/Информация : Audio Video InterleaveРазмер файла : 1,47 ГбайтПродолжительность : 1 ч. 51 м.Общий поток : 1893 Кбит/секПрограмма кодирования : VirtualDubMod 1.5.10.3 | www.virtualdub-fr.org || (build 2550/release)Библиотека кодирования : VirtualDubMod build 2550/release
ВидеоИдентификатор : 0Формат файла : MPEG-4 VisualПрофиль формата : Advanced Simple@L5Параметр BVOP формата : 2Параметр QPel формата : НетПараметр GMC формата : Без точки переходаПараметр матрицы формата : ВыборочнаяИдентификатор кодека : XVIDИдентификатор кодека/Подсказка : XviDПродолжительность : 1 ч. 51 м.Битрейт : 1691 Кбит/секШирина : 720 пикселейВысота : 384 пикселяСоотношение сторон : 1,85:1Частота кадров : 23,976 (23976/1000) кадра/секЦветовое пространство : YUVСубдискретизация насыщенности : 4:2:0Битовая глубина : 8 битТип развёртки : ПрогрессивнаяМетод сжатия : С потерямиБит/(Пиксели*Кадры) : 0.255Размер потока : 1,31 Гбайт (89%)Библиотека кодирования : XviD 73
АудиоИдентификатор : 1Формат файла : AC-3Формат файла/Информация : Audio Coding 3Расширение режима : CM (complete main)Параметр Endianness формата : BigИдентификатор кодека : 2000Продолжительность : 1 ч. 51 м.Вид битрейта : ПостоянныйБитрейт : 192 Кбит/секКаналы : 2 каналаРасположение каналов : Front: L RЧастота : 48,0 КГцЧастота кадров : 31,250 кадров/сек (1536 spf)Метод сжатия : С потерямиРазмер потока : 153 Мбайт (10%)Выравнивание : Разделение по промежуткамПродолжительность промежутка : 42 мс. (1,00 видеокадр)Время предзагрузки промежутка : 500 мс.

Скриншот c названием фильма

Скриншоты



[torrentc.info]_t_5571593.torrent
Торрент: Зарегистрирован ·  [ 2018-06-17 23:16 ] ·  51b15dd004bfd66a47e252ef1687a45298253fb6

15 KB

Статус: проверено
Скачан: 0 раз
Размер: 1.47 GB
Оценка: 
(Голосов: 0)
Сказали спасибо: 0  Спасибо
Похожие темы
[Профиль]    [ЛС]
Показать сообщения:    
Ответить на тему

Текущее время: Сегодня 10:20

Часовой пояс: GMT + 7



Вы не можете начинать темы
Вы не можете отвечать на сообщения
Вы не можете редактировать свои сообщения
Вы не можете удалять свои сообщения
Вы не можете голосовать в опросах
Вы не можете прикреплять файлы к сообщениям
Вы можете скачивать файлы