(RIO/Avant-Prog, Art Rock, Progressive, Experimental) Tone Dogs + Caveman Shoestore (Matt Cameron of Soundgarden/Pearl Jam, Fred Chalenor, Amy Denio, Fred Frith of Henry Cow/Art Bears) - Discography - 1989-2005 [7CD], FLAC (tracks+.cue), lossless

Ответить на тему
Статистика раздачи [Обновить пиров]
Размер:  1.84 GB   |    Зарегистрирован:  4 месяца 1 день   |    Скачан:  0 раз

Полного источника не было: Никогда

 
   
 
 
 
Автор Сообщение

torrentc.info

Создавать темы 16-Июн-2018 23:32

[Цитировать]

Tone Dogs + Caveman ShoestoreДискография Жанр: Avant-Prog
Год издания: 1989 – 2005
Издатель (лейбл): Build-a-Buzz
Страна: United States of America
Аудиокодек: FLAC (*.flac)
Тип рипа: tracks+.cue
Битрейт аудио: lossless
Продолжительность: 05:25:08
Источник (релизер): GodoftheVoodooMoon
Наличие сканов в содержимом раздачи: нет
-

1989 - Ankety Low Day

Label: C/Z
Catalog#: CZ016
Продолжительность: 00:39:23
Трэклист:
1. "No Cry" (6:39)
2. "Vexed at the Vogue" (1:41)
3. "Carry Me Down" (2:01)
4. "The Wandering Guru" (5:27)
5. "Secret Crush" (4:03)
6. "Brave It" (4:39)
7. "BS Jige/Hade Hade" (6:26)
8. "Fifth Grade, Brownie Wall" (3:19)
9. "Poly" (5:08)-

Лог создания рипа

X Lossless Decoder version 20110703 (135.1)
XLD extraction logfile from 2011-07-03 23:03:04 -0700
Tone Dogs / Ankety Low Day
Used drive : MATSHITA DVD-R UJ-857D (revision KCVB)
Ripper mode : XLD Secure RipperDisable audio cache : OK for the drive with a cache less than 1375KiBMake use of C2 pointers : NORead offset correction : 102Max retry count : 100Gap status : Analyzed, Appended
TOC of the extracted CD Track | Start | Length | Start sector | End sector --------------------------------------------------------- 1 | 00:00:00 | 06:39:15 | 0 | 29939 2 | 06:39:15 | 01:41:10 | 29940 | 37524 3 | 08:20:25 | 02:01:23 | 37525 | 46622 4 | 10:21:48 | 05:27:10 | 46623 | 71157 5 | 15:48:58 | 04:02:60 | 71158 | 89367 6 | 19:51:43 | 04:38:50 | 89368 | 110267 7 | 24:30:18 | 06:25:55 | 110268 | 139197 8 | 30:55:73 | 03:19:27 | 139198 | 154149 9 | 34:15:25 | 05:07:68 | 154150 | 177242
AccurateRip Summary Track 01 : OK (confidence 2) Track 02 : OK (confidence 2) Track 03 : OK (confidence 2) Track 04 : OK (confidence 2) Track 05 : OK (confidence 2) Track 06 : OK (confidence 2) Track 07 : OK (confidence 2) Track 08 : OK (confidence 2) Track 09 : OK (confidence 2) ->All tracks accurately ripped.
All Tracks Album gain : 0.29 dB Peak : 1.000000 Statistics Read error : 0 Jitter error (maybe fixed) : 0 Retry sector count : 0 Damaged sector count : 0
Track 01 Filename : /XLD/Tone Dogs - 1990 - Ankety Low Day [FLAC]/01 No Cry.flac /XLD/Tone Dogs - 1990 - Ankety Low Day [MPEG-4 AAC (320)]/01 No Cry.m4a Pre-gap length : 00:02:00
Track gain : 0.32 dB Peak : 0.870331 CRC32 hash (test run) : C815A128 CRC32 hash : C815A128 CRC32 hash (skip zero) : 98B7E082 AccurateRip signature : 51B78719 ->Accurately ripped! (confidence 2) Statistics Read error : 0 Jitter error (maybe fixed) : 0 Retry sector count : 0 Damaged sector count : 0
Track 02 Filename : /XLD/Tone Dogs - 1990 - Ankety Low Day [FLAC]/02 Vexed At The Vogue.flac /XLD/Tone Dogs - 1990 - Ankety Low Day [MPEG-4 AAC (320)]/02 Vexed At The Vogue.m4a
Track gain : 0.17 dB Peak : 0.792694 CRC32 hash (test run) : 17D493D1 CRC32 hash : 17D493D1 CRC32 hash (skip zero) : 3BB366E7 AccurateRip signature : F0FB9A12 ->Accurately ripped! (confidence 2) Statistics Read error : 0 Jitter error (maybe fixed) : 0 Retry sector count : 0 Damaged sector count : 0
Track 03 Filename : /XLD/Tone Dogs - 1990 - Ankety Low Day [FLAC]/03 Carry Me Down.flac /XLD/Tone Dogs - 1990 - Ankety Low Day [MPEG-4 AAC (320)]/03 Carry Me Down.m4a Pre-gap length : 00:02:00
Track gain : 1.09 dB Peak : 0.918152 CRC32 hash (test run) : 9344D702 CRC32 hash : 9344D702 CRC32 hash (skip zero) : 762EE6A8 AccurateRip signature : D1A99B40 ->Accurately ripped! (confidence 2) Statistics Read error : 0 Jitter error (maybe fixed) : 0 Retry sector count : 0 Damaged sector count : 0
Track 04 Filename : /XLD/Tone Dogs - 1990 - Ankety Low Day [FLAC]/04 The Wandering Guru.flac /XLD/Tone Dogs - 1990 - Ankety Low Day [MPEG-4 AAC (320)]/04 The Wandering Guru.m4a Pre-gap length : 00:00:40
Track gain : 0.58 dB Peak : 0.865875 CRC32 hash (test run) : A59585D7 CRC32 hash : A59585D7 CRC32 hash (skip zero) : AAE32F87 AccurateRip signature : 181CADE5 ->Accurately ripped! (confidence 2) Statistics Read error : 0 Jitter error (maybe fixed) : 0 Retry sector count : 0 Damaged sector count : 0
Track 05 Filename : /XLD/Tone Dogs - 1990 - Ankety Low Day [FLAC]/05 Secret Crush.flac /XLD/Tone Dogs - 1990 - Ankety Low Day [MPEG-4 AAC (320)]/05 Secret Crush.m4a Pre-gap length : 00:03:23
Track gain : -0.43 dB Peak : 0.848938 CRC32 hash (test run) : E3F3EA85 CRC32 hash : E3F3EA85 CRC32 hash (skip zero) : 63801FFF AccurateRip signature : 97858CFB ->Accurately ripped! (confidence 2) Statistics Read error : 0 Jitter error (maybe fixed) : 0 Retry sector count : 0 Damaged sector count : 0
Track 06 Filename : /XLD/Tone Dogs - 1990 - Ankety Low Day [FLAC]/06 Brave It.flac /XLD/Tone Dogs - 1990 - Ankety Low Day [MPEG-4 AAC (320)]/06 Brave It.m4a Pre-gap length : 00:03:18
Track gain : 1.07 dB Peak : 0.870117 CRC32 hash (test run) : EED851F7 CRC32 hash : EED851F7 CRC32 hash (skip zero) : FBEE2525 AccurateRip signature : C06E9529 ->Accurately ripped! (confidence 2) Statistics Read error : 0 Jitter error (maybe fixed) : 0 Retry sector count : 0 Damaged sector count : 0
Track 07 Filename : /XLD/Tone Dogs - 1990 - Ankety Low Day [FLAC]/07 BS Jig/Hade Hade.flac /XLD/Tone Dogs - 1990 - Ankety Low Day [MPEG-4 AAC (320)]/07 BS Jig/Hade Hade.m4a
Track gain : 4.66 dB Peak : 0.652863 CRC32 hash (test run) : 081DDFC9 CRC32 hash : 081DDFC9 CRC32 hash (skip zero) : A20ECACA AccurateRip signature : A6A09E57 ->Accurately ripped! (confidence 2) Statistics Read error : 0 Jitter error (maybe fixed) : 0 Retry sector count : 0 Damaged sector count : 0
Track 08 Filename : /XLD/Tone Dogs - 1990 - Ankety Low Day [FLAC]/08 Fifth Grade Brownie Wall.flac /XLD/Tone Dogs - 1990 - Ankety Low Day [MPEG-4 AAC (320)]/08 Fifth Grade Brownie Wall.m4a Pre-gap length : 00:02:20
Track gain : -2.64 dB Peak : 1.000000 CRC32 hash (test run) : BB339E0C CRC32 hash : BB339E0C CRC32 hash (skip zero) : 59DEAC1B AccurateRip signature : 477A8682 ->Accurately ripped! (confidence 2) Statistics Read error : 0 Jitter error (maybe fixed) : 0 Retry sector count : 0 Damaged sector count : 0
Track 09 Filename : /XLD/Tone Dogs - 1990 - Ankety Low Day [FLAC]/09 Poly.flac /XLD/Tone Dogs - 1990 - Ankety Low Day [MPEG-4 AAC (320)]/09 Poly.m4a Pre-gap length : 00:00:60
Track gain : 0.13 dB Peak : 0.931152 CRC32 hash (test run) : 507E520E CRC32 hash : 507E520E CRC32 hash (skip zero) : E5ADD1D5 AccurateRip signature : 42A99032 ->Accurately ripped! (confidence 2) Statistics Read error : 0 Jitter error (maybe fixed) : 0 Retry sector count : 0 Damaged sector count : 0
No errors occurred
End of status report

Содержание индексной карты (.CUE)

TITLE "Ankety Low Day"PERFORMER "Tone Dogs"REM GENRE "Alternative-Rock"REM DATE "1990"REM DISCID 66093B09REM REPLAYGAIN_ALBUM_GAIN 0.29 dBREM REPLAYGAIN_ALBUM_PEAK 1.000000FILE "01 No Cry.flac" WAVE TRACK 01 AUDIO TITLE "No Cry" REM REPLAYGAIN_TRACK_GAIN 0.32 dB REM REPLAYGAIN_TRACK_PEAK 0.870331 INDEX 01 00:00:00FILE "02 Vexed At The Vogue.flac" WAVE TRACK 02 AUDIO TITLE "Vexed At The Vogue" REM REPLAYGAIN_TRACK_GAIN 0.17 dB REM REPLAYGAIN_TRACK_PEAK 0.792694 INDEX 01 00:00:00 TRACK 03 AUDIO TITLE "Carry Me Down" REM REPLAYGAIN_TRACK_GAIN 1.09 dB REM REPLAYGAIN_TRACK_PEAK 0.918152 INDEX 00 01:39:10FILE "03 Carry Me Down.flac" WAVE INDEX 01 00:00:00 TRACK 04 AUDIO TITLE "The Wandering Guru" REM REPLAYGAIN_TRACK_GAIN 0.58 dB REM REPLAYGAIN_TRACK_PEAK 0.865875 INDEX 00 02:00:58FILE "04 The Wandering Guru.flac" WAVE INDEX 01 00:00:00 TRACK 05 AUDIO TITLE "Secret Crush" REM REPLAYGAIN_TRACK_GAIN -0.43 dB REM REPLAYGAIN_TRACK_PEAK 0.848938 INDEX 00 05:23:62FILE "05 Secret Crush.flac" WAVE INDEX 01 00:00:00 TRACK 06 AUDIO TITLE "Brave It" REM REPLAYGAIN_TRACK_GAIN 1.07 dB REM REPLAYGAIN_TRACK_PEAK 0.870117 INDEX 00 03:59:42FILE "06 Brave It.flac" WAVE INDEX 01 00:00:00FILE "07 BS Jig/Hade Hade.flac" WAVE TRACK 07 AUDIO TITLE "BS Jig/Hade Hade" REM REPLAYGAIN_TRACK_GAIN 4.66 dB REM REPLAYGAIN_TRACK_PEAK 0.652863 INDEX 01 00:00:00 TRACK 08 AUDIO TITLE "Fifth Grade Brownie Wall" REM REPLAYGAIN_TRACK_GAIN -2.64 dB REM REPLAYGAIN_TRACK_PEAK 1.000000 INDEX 00 06:23:35FILE "08 Fifth Grade Brownie Wall.flac" WAVE INDEX 01 00:00:00 TRACK 09 AUDIO TITLE "Poly" REM REPLAYGAIN_TRACK_GAIN 0.13 dB REM REPLAYGAIN_TRACK_PEAK 0.931152 INDEX 00 03:18:42FILE "09 Poly.flac" WAVE INDEX 01 00:00:00

1991 - The Early Middle Years

Label: Soleilmoon
Catalog#: SOL 10 CD
Продолжительность: 00:56:14
Трэклист:
1. "(When Bush Was Head of the) CIA" (4:22)
2. "Agyptian Occordian" (2:14)
3. "Salvatore" (3:13)
4. "Eyeohyewahseedee" (2:40)
5. "Tumbling" (5:25)
6. "Spanish Eyes" (5:34)
7. "Waltz" (3:24)
8. "Mr. Awfully Nice" (3:58)
9. "Traffic Island Psycho" (3:47)
10. "Klezzy" (2:42)
11. "Sprinkling of Marie" (2:53)
12. "Major Minor" (4:07)
13. "Good A.M." (3:28)
14. "Three Fell Swoops" (8:26)-

Лог создания рипа

Exact Audio Copy V0.99 prebeta 4 from 23. January 2008
EAC extraction logfile from 12. February 2009, 21:19
Tone Dogs / The Early Middle Years
Used drive : LITE-ON LTR-52327S Adapter: 2 ID: 0
Read mode : SecureUtilize accurate stream : YesDefeat audio cache : YesMake use of C2 pointers : No
Read offset correction : 6Overread into Lead-In and Lead-Out : NoFill up missing offset samples with silence : YesDelete leading and trailing silent blocks : NoNull samples used in CRC calculations : YesUsed interface : Native Win32 interface for Win NT & 2000Gap handling : Appended to previous track
Used output format : User Defined EncoderSelected bitrate : 192 kBit/sQuality : HighAdd ID3 tag : NoCommand line compressor : C:\Program Files\Exact Audio Copy\Flac\flac.exeAdditional command line options : -V -8 -T "artist=%a" -T "title=%t" -T "album=%g" -T "date=%y" -T "tracknumber=%n" -T "genre=%m" %s
TOC of the extracted CD
Track | Start | Length | Start sector | End sector --------------------------------------------------------- 1 | 0:00.32 | 4:21.53 | 32 | 19659 2 | 4:22.10 | 2:14.05 | 19660 | 29714 3 | 6:36.15 | 3:13.17 | 29715 | 44206 4 | 9:49.32 | 2:40.05 | 44207 | 56211 5 | 12:29.37 | 5:25.05 | 56212 | 80591 6 | 17:54.42 | 5:33.53 | 80592 | 105619 7 | 23:28.20 | 3:24.20 | 105620 | 120939 8 | 26:52.40 | 3:57.72 | 120940 | 138786 9 | 30:50.37 | 3:46.60 | 138787 | 155796 10 | 34:37.22 | 2:42.10 | 155797 | 167956 11 | 37:19.32 | 2:53.33 | 167957 | 180964 12 | 40:12.65 | 4:07.02 | 180965 | 199491 13 | 44:19.67 | 3:28.25 | 199492 | 215116 14 | 47:48.17 | 8:25.73 | 215117 | 253064
Track 1
Filename C:\EAC Rips\FLAC\01 - Tone Dogs - (When Bush Was Head Of The) CIA.wav
Pre-gap length 0:00:02.32
Peak level 100.0 % Track quality 100.0 % Test CRC 50B85B45 Copy CRC 50B85B45 Track not present in AccurateRip database Copy OK
Track 2
Filename C:\EAC Rips\FLAC\02 - Tone Dogs - Agyptian Occordian.wav
Pre-gap length 0:00:03.20
Peak level 100.0 % Track quality 100.0 % Test CRC 2E53C2A8 Copy CRC 2E53C2A8 Track not present in AccurateRip database Copy OK
Track 3
Filename C:\EAC Rips\FLAC\03 - Tone Dogs - Salvatore.wav
Peak level 100.0 % Track quality 100.0 % Test CRC 18C35B90 Copy CRC 18C35B90 Track not present in AccurateRip database Copy OK
Track 4
Filename C:\EAC Rips\FLAC\04 - Tone Dogs - Eyeohyewahseedee.wav
Pre-gap length 0:00:02.47
Peak level 100.0 % Track quality 99.9 % Test CRC B3893F63 Copy CRC B3893F63 Track not present in AccurateRip database Copy OK
Track 5
Filename C:\EAC Rips\FLAC\05 - Tone Dogs - Tumbling.wav
Pre-gap length 0:00:01.67
Peak level 100.0 % Track quality 99.9 % Test CRC C346230B Copy CRC C346230B Track not present in AccurateRip database Copy OK
Track 6
Filename C:\EAC Rips\FLAC\06 - Tone Dogs - Spanish Eyes.wav
Peak level 100.0 % Track quality 99.9 % Test CRC 0C51646E Copy CRC 0C51646E Track not present in AccurateRip database Copy OK
Track 7
Filename C:\EAC Rips\FLAC\07 - Tone Dogs - Waltz.wav
Pre-gap length 0:00:03.43
Peak level 94.6 % Track quality 100.0 % Test CRC D8558BE3 Copy CRC D8558BE3 Track not present in AccurateRip database Copy OK
Track 8
Filename C:\EAC Rips\FLAC\08 - Tone Dogs - Mr. Awfully Nice.wav
Pre-gap length 0:00:02.25
Peak level 100.0 % Track quality 100.0 % Test CRC 5114E2A7 Copy CRC 5114E2A7 Track not present in AccurateRip database Copy OK
Track 9
Filename C:\EAC Rips\FLAC\09 - Tone Dogs - Traffic Island Psycho.wav
Pre-gap length 0:00:03.32
Peak level 86.8 % Track quality 99.9 % Test CRC DBA6D54A Copy CRC DBA6D54A Track not present in AccurateRip database Copy OK
Track 10
Filename C:\EAC Rips\FLAC\10 - Tone Dogs - Klezzy.wav
Pre-gap length 0:00:00.57
Peak level 100.0 % Track quality 100.0 % Test CRC DC2CB9B9 Copy CRC DC2CB9B9 Track not present in AccurateRip database Copy OK
Track 11
Filename C:\EAC Rips\FLAC\11 - Tone Dogs - Sprinkling Of Marie.wav
Pre-gap length 0:00:02.70
Peak level 100.0 % Track quality 100.0 % Test CRC FE47EA51 Copy CRC FE47EA51 Track not present in AccurateRip database Copy OK
Track 12
Filename C:\EAC Rips\FLAC\12 - Tone Dogs - Major Minor.wav
Pre-gap length 0:00:03.33
Peak level 100.0 % Track quality 99.9 % Test CRC 2AB71DE0 Copy CRC 2AB71DE0 Track not present in AccurateRip database Copy OK
Track 13
Filename C:\EAC Rips\FLAC\13 - Tone Dogs - Good A.M..wav
Pre-gap length 0:00:05.07
Peak level 100.0 % Track quality 100.0 % Test CRC E9AAE3B8 Copy CRC E9AAE3B8 Track not present in AccurateRip database Copy OK
Track 14
Filename C:\EAC Rips\FLAC\14 - Tone Dogs - Three Fell Swoops.wav
Pre-gap length 0:00:04.65
Peak level 100.0 % Track quality 100.0 % Test CRC 8F7D7B16 Copy CRC 8F7D7B16 Track not present in AccurateRip database Copy OK
None of the tracks are present in the AccurateRip database
No errors occurred
End of status report

Содержание индексной карты (.CUE)

REM GENRE AvantgardeREM DATE 1995REM DISCID B40D2E0EREM COMMENT "ExactAudioCopy v0.99pb4"PERFORMER "Tone Dogs"TITLE "The Early Middle Years"FILE "01 (When Bush Was Head of the) CIA.flac" WAVE TRACK 01 AUDIO TITLE "(When Bush Was Head of the) CIA" PERFORMER "Tone Dogs" PREGAP 00:00:32 INDEX 01 00:00:00 TRACK 02 AUDIO TITLE "Agyptian Occordian" PERFORMER "Tone Dogs" INDEX 00 04:18:33FILE "02 Agyptian Occordian.flac" WAVE INDEX 01 00:00:00FILE "03 Salvatore.flac" WAVE TRACK 03 AUDIO TITLE "Salvatore" PERFORMER "Tone Dogs" INDEX 01 00:00:00 TRACK 04 AUDIO TITLE "Eyeohyewahseedee" PERFORMER "Tone Dogs" INDEX 00 03:10:45FILE "04 Eyeohyewahseedee.flac" WAVE INDEX 01 00:00:00 TRACK 05 AUDIO TITLE "Tumbling" PERFORMER "Tone Dogs" INDEX 00 02:38:13FILE "05 Tumbling.flac" WAVE INDEX 01 00:00:00FILE "06 Spanish Eyes.flac" WAVE TRACK 06 AUDIO TITLE "Spanish Eyes" PERFORMER "Tone Dogs" INDEX 01 00:00:00 TRACK 07 AUDIO TITLE "Waltz" PERFORMER "Tone Dogs" INDEX 00 05:30:10FILE "07 Waltz.flac" WAVE INDEX 01 00:00:00 TRACK 08 AUDIO TITLE "Mr. Awfully Nice" PERFORMER "Tone Dogs" INDEX 00 03:21:70FILE "08 Mr. Awfully Nice.flac" WAVE INDEX 01 00:00:00 TRACK 09 AUDIO TITLE "Traffic Island Psycho" PERFORMER "Tone Dogs" INDEX 00 03:54:40FILE "09 Traffic Island Psycho.flac" WAVE INDEX 01 00:00:00 TRACK 10 AUDIO TITLE "Klezzy" PERFORMER "Tone Dogs" INDEX 00 03:46:03FILE "10 Klezzy.flac" WAVE INDEX 01 00:00:00 TRACK 11 AUDIO TITLE "Sprinkling of Marie" PERFORMER "Tone Dogs" INDEX 00 02:39:15FILE "11 Sprinkling of Marie.flac" WAVE INDEX 01 00:00:00 TRACK 12 AUDIO TITLE "Major Minor" PERFORMER "Tone Dogs" INDEX 00 02:50:00FILE "12 Major Minor.flac" WAVE INDEX 01 00:00:00 TRACK 13 AUDIO TITLE "Good A.M." PERFORMER "Tone Dogs" INDEX 00 04:01:70FILE "13 Good A.M..flac" WAVE INDEX 01 00:00:00 TRACK 14 AUDIO TITLE "Three Fell Swoops" PERFORMER "Tone Dogs" INDEX 00 03:23:35FILE "14 Three Fell Swoops.flac" WAVE INDEX 01 00:00:00

1992 - Master Cylinder

[img=right]https://i104.fastpic.ru/big/2018/0605/44/818ff16a38...28d144.jpg[/img]
Label: Tim/Kerr
Catalog#: TK92CD024
Продолжительность: 00:47:38
Трэклист:
1. "Spill" (2:00)
2. "Pencil Sharpener" (3:22)
3. "Big Slow Melvin" (4:46)
4. "Flying" (3:42)
5. "Tractor Beam" (2:30)
6. "Secret Doorway in Nevada Leading to Monster Truck at the Bottom of the Ocean Where Elvis Lives" (3:39)
7. "An Angel Flew By" (2:43)
8. "Tractor Pulling a Clown" (3:54)
9. "Flattened Doggies" (3:25)
10. "I Just Might" (4:25)
11. "Lost Horizon" (3:20)
12. "When Rome Burns, Read the Sports Page" (1:35)
13. "Information Overload" (8:13)-

Лог создания рипа

Exact Audio Copy V1.3 from 2. September 2016
EAC extraction logfile from 21. May 2018, 17:35
Caveman Shoestore / Master Cylinder
Used drive : HL-DT-STDVD-RAM GHC0N Adapter: 1 ID: 0
Read mode : SecureUtilize accurate stream : YesDefeat audio cache : YesMake use of C2 pointers : No
Read offset correction : 6Overread into Lead-In and Lead-Out : NoFill up missing offset samples with silence : YesDelete leading and trailing silent blocks : NoNull samples used in CRC calculations : YesUsed interface : Native Win32 interface for Win NT & 2000Gap handling : Appended to previous track
Used output format : User Defined EncoderSelected bitrate : 1024 kBit/sQuality : HighAdd ID3 tag : NoCommand line compressor : C:\Program Files (x86)\foobar2000\encoders\flac.exeAdditional command line options : -8 -e -p -V -T "ARTIST=%artist%" -T "TITLE=%title%" -T "ALBUM=%albumtitle%" -T "DATE=%year%" -T "TRACKNUMBER=%tracknr%" -T "GENRE=%genre%" -T "PERFORMER=%albuminterpret%" -T "COMPOSER=%composer%" %haslyrics%--tag-from-file=LYRICS="%lyricsfile%"%haslyrics% -T "ALBUMARTIST=%albumartist%" -T "DISCNUMBER=%cdnumber%" -T "TOTALDISCS=%totalcds%" -T "TOTALTRACKS=%numtracks%" -T "COMMENT=%comment%" %source% -o %dest%
TOC of the extracted CD
Track | Start | Length | Start sector | End sector --------------------------------------------------------- 1 | 0:00.00 | 2:00.27 | 0 | 9026 2 | 2:00.27 | 3:22.20 | 9027 | 24196 3 | 5:22.47 | 4:46.68 | 24197 | 45714 4 | 10:09.40 | 3:42.37 | 45715 | 62401 5 | 13:52.02 | 2:30.30 | 62402 | 73681 6 | 16:22.32 | 3:39.70 | 73682 | 90176 7 | 20:02.27 | 2:43.00 | 90177 | 102401 8 | 22:45.27 | 3:54.10 | 102402 | 119961 9 | 26:39.37 | 3:25.08 | 119962 | 135344 10 | 30:04.45 | 4:25.17 | 135345 | 155236 11 | 34:29.62 | 3:20.00 | 155237 | 170236 12 | 37:49.62 | 1:35.48 | 170237 | 177409 13 | 39:25.35 | 8:12.42 | 177410 | 214351
Track 1
Filename C:\Users\Neil\Desktop\Caveman Shoestore - Master Cylinder [FLAC]\01 Spill.wav
Pre-gap length 0:00:02.00
Peak level 96.2 % Extraction speed 2.3 X Track quality 100.0 % Test CRC A8CE358F Copy CRC A8CE358F Accurately ripped (confidence 1) [EDF329BB] (AR v1) Copy OK
Track 2
Filename C:\Users\Neil\Desktop\Caveman Shoestore - Master Cylinder [FLAC]\02 Pencil Sharpener.wav
Peak level 96.0 % Extraction speed 2.8 X Track quality 100.0 % Test CRC A1DDF2F2 Copy CRC A1DDF2F2 Accurately ripped (confidence 1) [049561C5] (AR v1) Copy OK
Track 3
Filename C:\Users\Neil\Desktop\Caveman Shoestore - Master Cylinder [FLAC]\03 Big Slow Melvin.wav
Peak level 96.2 % Extraction speed 3.2 X Track quality 100.0 % Test CRC EF2058FA Copy CRC EF2058FA Accurately ripped (confidence 1) [AA4FCD56] (AR v1) Copy OK
Track 4
Filename C:\Users\Neil\Desktop\Caveman Shoestore - Master Cylinder [FLAC]\04 Flying.wav
Peak level 96.3 % Extraction speed 3.4 X Track quality 100.0 % Test CRC 9283EA9B Copy CRC 9283EA9B Accurately ripped (confidence 1) [87B65F72] (AR v1) Copy OK
Track 5
Filename C:\Users\Neil\Desktop\Caveman Shoestore - Master Cylinder [FLAC]\05 Tractor Beam.wav
Peak level 96.2 % Extraction speed 2.4 X Track quality 99.9 % Test CRC EE781AC0 Copy CRC EE781AC0 Accurately ripped (confidence 1) [C0B96B43] (AR v1) Copy OK
Track 6
Filename C:\Users\Neil\Desktop\Caveman Shoestore - Master Cylinder [FLAC]\06 Secret Doorway in Nevada Leading to Monster Truck at the Bottom of the Ocean Where Elvis Lives.wav
Pre-gap length 0:00:00.53
Peak level 96.3 % Extraction speed 3.7 X Track quality 100.0 % Test CRC 20C0B9C8 Copy CRC 20C0B9C8 Accurately ripped (confidence 1) [8161A403] (AR v1) Copy OK
Track 7
Filename C:\Users\Neil\Desktop\Caveman Shoestore - Master Cylinder [FLAC]\07 An Angel Flew By.wav
Pre-gap length 0:00:02.20
Peak level 95.8 % Extraction speed 2.6 X Track quality 99.9 % Test CRC 468DE087 Copy CRC 468DE087 Accurately ripped (confidence 1) [F6D3BE27] (AR v1) Copy OK
Track 8
Filename C:\Users\Neil\Desktop\Caveman Shoestore - Master Cylinder [FLAC]\08 Tractor Pulling a Clown.wav
Pre-gap length 0:00:02.02
Peak level 96.5 % Extraction speed 4.1 X Track quality 100.0 % Test CRC 91AC309E Copy CRC 91AC309E Accurately ripped (confidence 1) [A027FB5B] (AR v1) Copy OK
Track 9
Filename C:\Users\Neil\Desktop\Caveman Shoestore - Master Cylinder [FLAC]\09 Flattened Doggies.wav
Peak level 96.5 % Extraction speed 4.2 X Track quality 100.0 % Test CRC EFBA288E Copy CRC EFBA288E Accurately ripped (confidence 1) [0E17509A] (AR v1) Copy OK
Track 10
Filename C:\Users\Neil\Desktop\Caveman Shoestore - Master Cylinder [FLAC]\10 I Just Might.wav
Pre-gap length 0:00:01.60
Peak level 96.2 % Extraction speed 4.5 X Track quality 100.0 % Test CRC 5446EBB5 Copy CRC 5446EBB5 Accurately ripped (confidence 1) [C810C6D2] (AR v1) Copy OK
Track 11
Filename C:\Users\Neil\Desktop\Caveman Shoestore - Master Cylinder [FLAC]\11 Lost Horizon.wav
Pre-gap length 0:00:01.56
Peak level 96.6 % Extraction speed 4.5 X Track quality 100.0 % Test CRC CB429088 Copy CRC CB429088 Accurately ripped (confidence 1) [2E584DF5] (AR v1) Copy OK
Track 12
Filename C:\Users\Neil\Desktop\Caveman Shoestore - Master Cylinder [FLAC]\12 When Rome Burns, Read the Sports Page.wav
Pre-gap length 0:00:00.69
Peak level 96.3 % Extraction speed 3.8 X Track quality 100.0 % Test CRC 863212A1 Copy CRC 863212A1 Accurately ripped (confidence 1) [C8C5CED2] (AR v1) Copy OK
Track 13
Filename C:\Users\Neil\Desktop\Caveman Shoestore - Master Cylinder [FLAC]\13 Information Overload.wav
Peak level 96.1 % Extraction speed 5.2 X Track quality 100.0 % Test CRC 7272363F Copy CRC 7272363F Accurately ripped (confidence 1) [4AAF1C05] (AR v1) Copy OK
All tracks accurately ripped
No errors occurred
End of status report
---- CUETools DB Plugin V2.1.6
[CTDB TOCID: KW_.zEVlguSLGiuuDcKmKgw0eXM-] foundSubmit result: KW_.zEVlguSLGiuuDcKmKgw0eXM- has been confirmedTrack | CTDB Status 1 | (1/1) Accurately ripped 2 | (1/1) Accurately ripped 3 | (1/1) Accurately ripped 4 | (1/1) Accurately ripped 5 | (1/1) Accurately ripped 6 | (1/1) Accurately ripped 7 | (1/1) Accurately ripped 8 | (1/1) Accurately ripped 9 | (1/1) Accurately ripped 10 | (1/1) Accurately ripped 11 | (1/1) Accurately ripped 12 | (1/1) Accurately ripped 13 | (1/1) Accurately ripped
==== Log checksum 5BAAA3CC9E3E2218FB1C58640A7D5356099403E05879FEF41C56138A729B359C ====

Содержание индексной карты (.CUE)

REM GENRE "Progressive Rock"REM DATE 1992REM DISCID 930B2A0DREM COMMENT "ExactAudioCopy v1.3"PERFORMER "Caveman Shoestore"TITLE "Master Cylinder"FILE "01 Spill.flac" WAVE TRACK 01 AUDIO TITLE "Spill" PERFORMER "Caveman Shoestore" INDEX 01 00:00:00FILE "02 Pencil Sharpener.flac" WAVE TRACK 02 AUDIO TITLE "Pencil Sharpener" PERFORMER "Caveman Shoestore" INDEX 01 00:00:00FILE "03 Big Slow Melvin.flac" WAVE TRACK 03 AUDIO TITLE "Big Slow Melvin" PERFORMER "Caveman Shoestore" INDEX 01 00:00:00FILE "04 Flying.flac" WAVE TRACK 04 AUDIO TITLE "Flying" PERFORMER "Caveman Shoestore" INDEX 01 00:00:00FILE "05 Tractor Beam.flac" WAVE TRACK 05 AUDIO TITLE "Tractor Beam" PERFORMER "Caveman Shoestore" INDEX 01 00:00:00 TRACK 06 AUDIO TITLE "Secret Doorway in Nevada Leading to Monster Truck at the Bottom of the Ocean ..." PERFORMER "Caveman Shoestore" INDEX 00 02:29:65FILE "06 Secret Doorway in Nevada Leading to Monster Truck at the Bottom of the Ocean Where Elvis Lives.flac" WAVE INDEX 01 00:00:00 TRACK 07 AUDIO TITLE "An Angel Flew By" PERFORMER "Caveman Shoestore" INDEX 00 03:37:55FILE "07 An Angel Flew By.flac" WAVE INDEX 01 00:00:00 TRACK 08 AUDIO TITLE "Tractor Pulling a Clown" PERFORMER "Caveman Shoestore" INDEX 00 02:40:73FILE "08 Tractor Pulling a Clown.flac" WAVE INDEX 01 00:00:00FILE "09 Flattened Doggies.flac" WAVE TRACK 09 AUDIO TITLE "Flattened Doggies" PERFORMER "Caveman Shoestore" INDEX 01 00:00:00 TRACK 10 AUDIO TITLE "I Just Might" PERFORMER "Caveman Shoestore" INDEX 00 03:23:38FILE "10 I Just Might.flac" WAVE INDEX 01 00:00:00 TRACK 11 AUDIO TITLE "Lost Horizon" PERFORMER "Caveman Shoestore" INDEX 00 04:23:50FILE "11 Lost Horizon.flac" WAVE INDEX 01 00:00:00 TRACK 12 AUDIO TITLE "When Rome Burns, Read the Sports Page" PERFORMER "Caveman Shoestore" INDEX 00 03:19:23FILE "12 When Rome Burns, Read the Sports Page.flac" WAVE INDEX 01 00:00:00FILE "13 Information Overload.flac" WAVE TRACK 13 AUDIO TITLE "Information Overload" PERFORMER "Caveman Shoestore" INDEX 01 00:00:00

1994 - Flux

[img=right]https://i104.fastpic.ru/big/2018/0605/ed/d403edb28e...7fa4ed.jpg[/img]
Label: Tim/Kerr
Catalog#: TK92CD056
Продолжительность: 00:46:16
Трэклист:
1. "Knife Edge" (4:22)
2. "The Pond at Night" (0:49)
3. "Actualize" (4:40)
4. "Four Years Old" (3:10)
5. "Ticket to Obscurity" (2:25)
6. "Kurtain" (3:24)
7. "All This Air" (3:59)
8. "Lightning" (3:37)
9. "Henzyme" (3:18)
10. "Underneath the Water" (5:41)
11. "Underneath the City" (3:14)
12. "Cold" (7:32)-

Лог создания рипа

Exact Audio Copy V1.3 from 2. September 2016
EAC extraction logfile from 21. May 2018, 18:13
Caveman Shoestore / Flux
Used drive : HL-DT-STDVD-RAM GHC0N Adapter: 1 ID: 0
Read mode : SecureUtilize accurate stream : YesDefeat audio cache : YesMake use of C2 pointers : No
Read offset correction : 6Overread into Lead-In and Lead-Out : NoFill up missing offset samples with silence : YesDelete leading and trailing silent blocks : NoNull samples used in CRC calculations : YesUsed interface : Native Win32 interface for Win NT & 2000Gap handling : Appended to previous track
Used output format : User Defined EncoderSelected bitrate : 1024 kBit/sQuality : HighAdd ID3 tag : NoCommand line compressor : C:\Program Files (x86)\foobar2000\encoders\flac.exeAdditional command line options : -8 -e -p -V -T "ARTIST=%artist%" -T "TITLE=%title%" -T "ALBUM=%albumtitle%" -T "DATE=%year%" -T "TRACKNUMBER=%tracknr%" -T "GENRE=%genre%" -T "PERFORMER=%albuminterpret%" -T "COMPOSER=%composer%" %haslyrics%--tag-from-file=LYRICS="%lyricsfile%"%haslyrics% -T "ALBUMARTIST=%albumartist%" -T "DISCNUMBER=%cdnumber%" -T "TOTALDISCS=%totalcds%" -T "TOTALTRACKS=%numtracks%" -T "COMMENT=%comment%" %source% -o %dest%
TOC of the extracted CD
Track | Start | Length | Start sector | End sector --------------------------------------------------------- 1 | 0:00.00 | 4:22.17 | 0 | 19666 2 | 4:22.17 | 0:49.55 | 19667 | 23396 3 | 5:11.72 | 4:40.45 | 23397 | 44441 4 | 9:52.42 | 3:10.73 | 44442 | 58764 5 | 13:03.40 | 2:25.45 | 58765 | 69684 6 | 15:29.10 | 3:24.65 | 69685 | 85049 7 | 18:54.00 | 3:59.55 | 85050 | 103029 8 | 22:53.55 | 3:37.32 | 103030 | 119336 9 | 26:31.12 | 3:18.30 | 119337 | 134216 10 | 29:49.42 | 5:41.00 | 134217 | 159791 11 | 35:30.42 | 3:14.05 | 159792 | 174346 12 | 38:44.47 | 7:31.33 | 174347 | 208204
Track 1
Filename C:\Users\Neil\Desktop\Caveman Shoestore - Flux [FLAC]\01 Knife Edge.wav
Pre-gap length 0:00:02.00
Peak level 99.9 % Extraction speed 2.6 X Track quality 100.0 % Test CRC 69541C99 Copy CRC 69541C99 Accurately ripped (confidence 1) [86F51BCC] (AR v2) Copy OK
Track 2
Filename C:\Users\Neil\Desktop\Caveman Shoestore - Flux [FLAC]\02 The Pond at Night.wav
Pre-gap length 0:00:01.33
Peak level 100.0 % Extraction speed 1.8 X Track quality 100.0 % Test CRC 426D26CF Copy CRC 426D26CF Accurately ripped (confidence 1) [70BEE221] (AR v2) Copy OK
Track 3
Filename C:\Users\Neil\Desktop\Caveman Shoestore - Flux [FLAC]\03 Actualize.wav
Peak level 100.0 % Extraction speed 3.0 X Track quality 100.0 % Test CRC 3CCA515E Copy CRC 3CCA515E Accurately ripped (confidence 1) [04628979] (AR v2) Copy OK
Track 4
Filename C:\Users\Neil\Desktop\Caveman Shoestore - Flux [FLAC]\04 Four Years Old.wav
Pre-gap length 0:00:02.33
Peak level 100.0 % Extraction speed 3.1 X Track quality 100.0 % Test CRC ED69A45E Copy CRC ED69A45E Accurately ripped (confidence 1) [270DFFB0] (AR v2) Copy OK
Track 5
Filename C:\Users\Neil\Desktop\Caveman Shoestore - Flux [FLAC]\05 Ticket to Obscurity.wav
Pre-gap length 0:00:00.33
Peak level 100.0 % Extraction speed 3.2 X Track quality 100.0 % Test CRC 2262EBF0 Copy CRC 2262EBF0 Accurately ripped (confidence 1) [8EB8BDE4] (AR v2) Copy OK
Track 6
Filename C:\Users\Neil\Desktop\Caveman Shoestore - Flux [FLAC]\06 Kurtain.wav
Peak level 100.0 % Extraction speed 2.6 X Track quality 99.9 % Test CRC F157429E Copy CRC F157429E Accurately ripped (confidence 1) [2D4BA7B8] (AR v2) Copy OK
Track 7
Filename C:\Users\Neil\Desktop\Caveman Shoestore - Flux [FLAC]\07 All This Air.wav
Peak level 99.9 % Extraction speed 3.8 X Track quality 100.0 % Test CRC 05778723 Copy CRC 05778723 Accurately ripped (confidence 1) [8405E093] (AR v2) Copy OK
Track 8
Filename C:\Users\Neil\Desktop\Caveman Shoestore - Flux [FLAC]\08 Lightning.wav
Peak level 99.9 % Extraction speed 3.0 X Track quality 99.9 % Test CRC 40D60D00 Copy CRC 40D60D00 Accurately ripped (confidence 1) [0453B93F] (AR v2) Copy OK
Track 9
Filename C:\Users\Neil\Desktop\Caveman Shoestore - Flux [FLAC]\09 Henzyme.wav
Peak level 99.9 % Extraction speed 4.0 X Track quality 100.0 % Test CRC 0F650211 Copy CRC 0F650211 Accurately ripped (confidence 1) [4F1246D1] (AR v2) Copy OK
Track 10
Filename C:\Users\Neil\Desktop\Caveman Shoestore - Flux [FLAC]\10 Underneath the Water.wav
Peak level 100.0 % Extraction speed 4.5 X Track quality 100.0 % Test CRC 28B22E94 Copy CRC 28B22E94 Accurately ripped (confidence 1) [3827C260] (AR v2) Copy OK
Track 11
Filename C:\Users\Neil\Desktop\Caveman Shoestore - Flux [FLAC]\11 Underneath the City.wav
Pre-gap length 0:00:02.33
Peak level 99.9 % Extraction speed 4.3 X Track quality 100.0 % Test CRC 13D9C2AB Copy CRC 13D9C2AB Accurately ripped (confidence 1) [E30C49F5] (AR v2) Copy OK
Track 12
Filename C:\Users\Neil\Desktop\Caveman Shoestore - Flux [FLAC]\12 Cold.wav
Pre-gap length 0:00:02.33
Peak level 100.0 % Extraction speed 5.0 X Track quality 100.0 % Test CRC FFB603EF Copy CRC FFB603EF Accurately ripped (confidence 1) [04555283] (AR v2) Copy OK
All tracks accurately ripped
No errors occurred
End of status report
---- CUETools DB Plugin V2.1.6
[CTDB TOCID: FWn.b485NQv8MWt6eCkRt11bJPI-] disk not present in databaseSubmit result: FWn.b485NQv8MWt6eCkRt11bJPI- has been uploaded
==== Log checksum D01F384F99FF1CEBE05914B23FBED854764BE277913E3AA70EF9BEF8ADC3F5E4 ====

Содержание индексной карты (.CUE)

REM GENRE "Progressive Rock"REM DATE 1994REM DISCID 9C0AD80CREM COMMENT "ExactAudioCopy v1.3"CATALOG 0000000000000PERFORMER "Caveman Shoestore"TITLE "Flux"FILE "01 Knife Edge.flac" WAVE TRACK 01 AUDIO TITLE "Knife Edge" PERFORMER "Caveman Shoestore" INDEX 01 00:00:00 TRACK 02 AUDIO TITLE "The Pond at Night" PERFORMER "Caveman Shoestore" INDEX 00 04:20:67FILE "02 The Pond at Night.flac" WAVE INDEX 01 00:00:00FILE "03 Actualize.flac" WAVE TRACK 03 AUDIO TITLE "Actualize" PERFORMER "Caveman Shoestore" INDEX 01 00:00:00 TRACK 04 AUDIO TITLE "Four Years Old" PERFORMER "Caveman Shoestore" INDEX 00 04:38:20FILE "04 Four Years Old.flac" WAVE INDEX 01 00:00:00 TRACK 05 AUDIO TITLE "Ticket to Obscurity" PERFORMER "Caveman Shoestore" INDEX 00 03:10:48FILE "05 Ticket to Obscurity.flac" WAVE INDEX 01 00:00:00FILE "06 Kurtain.flac" WAVE TRACK 06 AUDIO TITLE "Kurtain" PERFORMER "Caveman Shoestore" INDEX 01 00:00:00FILE "07 All This Air.flac" WAVE TRACK 07 AUDIO TITLE "All This Air" PERFORMER "Caveman Shoestore" INDEX 01 00:00:00FILE "08 Lightning.flac" WAVE TRACK 08 AUDIO TITLE "Lightning" PERFORMER "Caveman Shoestore" INDEX 01 00:00:00FILE "09 Henzyme.flac" WAVE TRACK 09 AUDIO TITLE "Henzyme" PERFORMER "Caveman Shoestore" INDEX 01 00:00:00FILE "10 Underneath the Water.flac" WAVE TRACK 10 AUDIO TITLE "Underneath the Water" PERFORMER "Caveman Shoestore" INDEX 01 00:00:00 TRACK 11 AUDIO TITLE "Underneath the City" PERFORMER "Caveman Shoestore" INDEX 00 05:38:50FILE "11 Underneath the City.flac" WAVE INDEX 01 00:00:00 TRACK 12 AUDIO TITLE "Cold" PERFORMER "Caveman Shoestore" INDEX 00 03:11:55FILE "12 Cold.flac" WAVE INDEX 01 00:00:00

1995 - Caveman Hughscore

[img=right]https://i104.fastpic.ru/big/2018/0605/2f/f985da58a1...15822f.jpg[/img]
Label: Tim/Kerr
Catalog#: TK95CD093
Продолжительность: 00:57:05
Трэклист:
1. "A Rabbit or a Lemon" (6:34)
2. "More Than Nothing" (7:00)
3. "Maja Raja" (1:15)
4. "Dee Dum" (4:34)
5. "Scooter Trash" (3:20)
6. "Dust My Mind" (3:11)
7. "Splinter Cat/Edorian" (2:31)
8. "A Small Seed" (5:33)
9. "Dedicated to You But You Weren't Listening" (2:32)
10. "Virtual Cats" (3:23)
11. "Oregon Transplant" (2:37)
12. "Freak Control" (2:20)
13. "Extra Lung" (3:42)
14. "Sasquatch Elevator" (1:13)
15. "Panic " (7:15)-

Лог создания рипа

Exact Audio Copy V1.3 from 2. September 2016
EAC extraction logfile from 21. May 2018, 19:55
Caveman Hughscore / Caveman Hughscore
Used drive : HL-DT-STDVD-RAM GHC0N Adapter: 1 ID: 0
Read mode : SecureUtilize accurate stream : YesDefeat audio cache : YesMake use of C2 pointers : No
Read offset correction : 6Overread into Lead-In and Lead-Out : NoFill up missing offset samples with silence : YesDelete leading and trailing silent blocks : NoNull samples used in CRC calculations : YesUsed interface : Native Win32 interface for Win NT & 2000Gap handling : Appended to previous track
Used output format : User Defined EncoderSelected bitrate : 1024 kBit/sQuality : HighAdd ID3 tag : NoCommand line compressor : C:\Program Files (x86)\foobar2000\encoders\flac.exeAdditional command line options : -8 -e -p -V -T "ARTIST=%artist%" -T "TITLE=%title%" -T "ALBUM=%albumtitle%" -T "DATE=%year%" -T "TRACKNUMBER=%tracknr%" -T "GENRE=%genre%" -T "PERFORMER=%albuminterpret%" -T "COMPOSER=%composer%" %haslyrics%--tag-from-file=LYRICS="%lyricsfile%"%haslyrics% -T "ALBUMARTIST=%albumartist%" -T "DISCNUMBER=%cdnumber%" -T "TOTALDISCS=%totalcds%" -T "TOTALTRACKS=%numtracks%" -T "COMMENT=%comment%" %source% -o %dest%
TOC of the extracted CD
Track | Start | Length | Start sector | End sector --------------------------------------------------------- 1 | 0:00.00 | 6:34.35 | 0 | 29584 2 | 6:34.35 | 7:00.22 | 29585 | 61106 3 | 13:34.57 | 1:15.18 | 61107 | 66749 4 | 14:50.00 | 4:34.22 | 66750 | 87321 5 | 19:24.22 | 3:20.18 | 87322 | 102339 6 | 22:44.40 | 3:11.50 | 102340 | 116714 7 | 25:56.15 | 2:31.65 | 116715 | 128104 8 | 28:28.05 | 5:33.05 | 128105 | 153084 9 | 34:01.10 | 2:32.45 | 153085 | 164529 10 | 36:33.55 | 3:23.22 | 164530 | 179776 11 | 39:57.02 | 2:37.03 | 179777 | 191554 12 | 42:34.05 | 2:20.42 | 191555 | 202096 13 | 44:54.47 | 3:42.08 | 202097 | 218754 14 | 48:36.55 | 1:13.32 | 218755 | 224261 15 | 49:50.12 | 7:15.28 | 224262 | 256914
Track 1
Filename C:\Users\Neil\Desktop\Caveman Hughscore - Caveman Hughscore [FLAC]\01 A Rabbit or a Lemon.wav
Pre-gap length 0:00:02.00
Peak level 94.2 % Extraction speed 2.9 X Track quality 100.0 % Test CRC 49B3B81E Copy CRC 49B3B81E Accurately ripped (confidence 4) [179C6074] (AR v2) Copy OK
Track 2
Filename C:\Users\Neil\Desktop\Caveman Hughscore - Caveman Hughscore [FLAC]\02 More Than Nothing.wav
Peak level 94.3 % Extraction speed 2.9 X Track quality 99.9 % Test CRC 6220CB48 Copy CRC 6220CB48 Accurately ripped (confidence 4) [A342F869] (AR v2) Copy OK
Track 3
Filename C:\Users\Neil\Desktop\Caveman Hughscore - Caveman Hughscore [FLAC]\03 Maja Raja.wav
Peak level 94.2 % Extraction speed 2.7 X Track quality 100.0 % Test CRC EF54D7FE Copy CRC EF54D7FE Accurately ripped (confidence 4) [8E13D2C2] (AR v2) Copy OK
Track 4
Filename C:\Users\Neil\Desktop\Caveman Hughscore - Caveman Hughscore [FLAC]\04 Dee Dum.wav
Peak level 94.2 % Extraction speed 3.6 X Track quality 100.0 % Test CRC 9C017BD8 Copy CRC 9C017BD8 Accurately ripped (confidence 4) [31AA774F] (AR v2) Copy OK
Track 5
Filename C:\Users\Neil\Desktop\Caveman Hughscore - Caveman Hughscore [FLAC]\05 Scooter Trash.wav
Peak level 94.2 % Extraction speed 3.7 X Track quality 100.0 % Test CRC BB3EAF74 Copy CRC BB3EAF74 Accurately ripped (confidence 4) [B60C58C1] (AR v2) Copy OK
Track 6
Filename C:\Users\Neil\Desktop\Caveman Hughscore - Caveman Hughscore [FLAC]\06 Dust My Mind.wav
Peak level 100.0 % Extraction speed 3.8 X Track quality 100.0 % Test CRC 815F59BA Copy CRC 815F59BA Accurately ripped (confidence 4) [6B3D2F62] (AR v2) Copy OK
Track 7
Filename C:\Users\Neil\Desktop\Caveman Hughscore - Caveman Hughscore [FLAC]\07 Edorian,Splinter Cat.wav
Peak level 94.2 % Extraction speed 3.8 X Track quality 100.0 % Test CRC 25A8FF03 Copy CRC 25A8FF03 Accurately ripped (confidence 4) [0DF588BD] (AR v2) Copy OK
Track 8
Filename C:\Users\Neil\Desktop\Caveman Hughscore - Caveman Hughscore [FLAC]\08 A Small Seed.wav
Peak level 94.3 % Extraction speed 4.4 X Track quality 100.0 % Test CRC D511BB09 Copy CRC D511BB09 Accurately ripped (confidence 4) [860228A1] (AR v2) Copy OK
Track 9
Filename C:\Users\Neil\Desktop\Caveman Hughscore - Caveman Hughscore [FLAC]\09 Dedicated to You But You Weren't Listening.wav
Peak level 94.2 % Extraction speed 4.1 X Track quality 100.0 % Test CRC 1BF0718D Copy CRC 1BF0718D Accurately ripped (confidence 4) [485C1B53] (AR v2) Copy OK
Track 10
Filename C:\Users\Neil\Desktop\Caveman Hughscore - Caveman Hughscore [FLAC]\10 Virtual Cats.wav
Peak level 94.2 % Extraction speed 4.5 X Track quality 100.0 % Test CRC 1AACB930 Copy CRC 1AACB930 Accurately ripped (confidence 4) [93F33964] (AR v2) Copy OK
Track 11
Filename C:\Users\Neil\Desktop\Caveman Hughscore - Caveman Hughscore [FLAC]\11 Oregon Transplant.wav
Peak level 94.2 % Extraction speed 3.1 X Track quality 99.9 % Test CRC 1006056D Copy CRC 1006056D Accurately ripped (confidence 4) [3DB8C455] (AR v2) Copy OK
Track 12
Filename C:\Users\Neil\Desktop\Caveman Hughscore - Caveman Hughscore [FLAC]\12 Freak Control.wav
Peak level 94.2 % Extraction speed 4.3 X Track quality 100.0 % Test CRC DD8E1FF9 Copy CRC DD8E1FF9 Accurately ripped (confidence 4) [494EA63D] (AR v2) Copy OK
Track 13
Filename C:\Users\Neil\Desktop\Caveman Hughscore - Caveman Hughscore [FLAC]\13 Extra Lung.wav
Peak level 94.2 % Extraction speed 3.7 X Track quality 99.9 % Test CRC 4FDF18AB Copy CRC 4FDF18AB Accurately ripped (confidence 4) [8B9D0ADB] (AR v2) Copy OK
Track 14
Filename C:\Users\Neil\Desktop\Caveman Hughscore - Caveman Hughscore [FLAC]\14 Sasquatch Elevator.wav
Peak level 94.2 % Extraction speed 3.8 X Track quality 100.0 % Test CRC 6313A7F4 Copy CRC 6313A7F4 Accurately ripped (confidence 4) [3B0ABAEC] (AR v2) Copy OK
Track 15
Filename C:\Users\Neil\Desktop\Caveman Hughscore - Caveman Hughscore [FLAC]\15 Panic.wav
Peak level 94.2 % Extraction speed 5.4 X Track quality 100.0 % Test CRC 286044B0 Copy CRC 286044B0 Accurately ripped (confidence 4) [E940F20D] (AR v2) Copy OK
All tracks accurately ripped
No errors occurred
End of status report
---- CUETools DB Plugin V2.1.6
[CTDB TOCID: cfRF3qg_5F1CKOnPpbqdbLX2hMc-] foundSubmit result: cfRF3qg_5F1CKOnPpbqdbLX2hMc- has been confirmedTrack | CTDB Status 1 | (3/3) Accurately ripped 2 | (3/3) Accurately ripped 3 | (3/3) Accurately ripped 4 | (3/3) Accurately ripped 5 | (3/3) Accurately ripped 6 | (3/3) Accurately ripped 7 | (3/3) Accurately ripped 8 | (3/3) Accurately ripped 9 | (3/3) Accurately ripped 10 | (3/3) Accurately ripped 11 | (3/3) Accurately ripped 12 | (3/3) Accurately ripped 13 | (3/3) Accurately ripped 14 | (3/3) Accurately ripped 15 | (3/3) Accurately ripped
==== Log checksum ED2711C4FC08C58329816CD78069CE290C55BFE86BA58F687FE5E3AA90BD3F27 ====

Содержание индексной карты (.CUE)

REM GENRE "Progressive Rock"REM DATE 1995REM DISCID F40D610FREM COMMENT "ExactAudioCopy v1.3"CATALOG 0000000000000PERFORMER "Caveman Hughscore"TITLE "Caveman Hughscore"FILE "01 A Rabbit or a Lemon.flac" WAVE TRACK 01 AUDIO TITLE "A Rabbit or a Lemon" PERFORMER "Caveman Hughscore" INDEX 01 00:00:00FILE "02 More Than Nothing.flac" WAVE TRACK 02 AUDIO TITLE "More Than Nothing" PERFORMER "Caveman Hughscore" INDEX 01 00:00:00FILE "03 Maja Raja.flac" WAVE TRACK 03 AUDIO TITLE "Maja Raja" PERFORMER "Caveman Hughscore" INDEX 01 00:00:00FILE "04 Dee Dum.flac" WAVE TRACK 04 AUDIO TITLE "Dee Dum" PERFORMER "Caveman Hughscore" INDEX 01 00:00:00FILE "05 Scooter Trash.flac" WAVE TRACK 05 AUDIO TITLE "Scooter Trash" PERFORMER "Caveman Hughscore" INDEX 01 00:00:00FILE "06 Dust My Mind.flac" WAVE TRACK 06 AUDIO TITLE "Dust My Mind" PERFORMER "Caveman Hughscore" INDEX 01 00:00:00FILE "07 Edorian-Splinter Cat.flac" WAVE TRACK 07 AUDIO TITLE "Edorian/Splinter Cat" PERFORMER "Caveman Hughscore" INDEX 01 00:00:00FILE "08 A Small Seed.flac" WAVE TRACK 08 AUDIO TITLE "A Small Seed" PERFORMER "Caveman Hughscore" INDEX 01 00:00:00FILE "09 Dedicated to You But You Weren't Listening.flac" WAVE TRACK 09 AUDIO TITLE "Dedicated to You But You Weren't Listening" PERFORMER "Caveman Hughscore" INDEX 01 00:00:00FILE "10 Virtual Cats.flac" WAVE TRACK 10 AUDIO TITLE "Virtual Cats" PERFORMER "Caveman Hughscore" INDEX 01 00:00:00FILE "11 Oregon Transplant.flac" WAVE TRACK 11 AUDIO TITLE "Oregon Transplant" PERFORMER "Caveman Hughscore" INDEX 01 00:00:00FILE "12 Freak Control.flac" WAVE TRACK 12 AUDIO TITLE "Freak Control" PERFORMER "Caveman Hughscore" INDEX 01 00:00:00FILE "13 Extra Lung.flac" WAVE TRACK 13 AUDIO TITLE "Extra Lung" PERFORMER "Caveman Hughscore" INDEX 01 00:00:00FILE "14 Sasquatch Elevator.flac" WAVE TRACK 14 AUDIO TITLE "Sasquatch Elevator" PERFORMER "Caveman Hughscore" INDEX 01 00:00:00FILE "15 Panic.flac" WAVE TRACK 15 AUDIO TITLE "Panic" PERFORMER "Caveman Hughscore" INDEX 01 00:00:00

2004 - Face Ditch

[img=right]https://i104.fastpic.ru/big/2018/0605/9d/666a8404d0...d8659d.jpg[/img]
Label: Build-a-Buzz
Catalog#: 001
Продолжительность: 00:40:29
Трэклист:
1. "Apples" (3:44)
2. "Goin' Downtown Once Again" (3:12)
3. "Space Flight Cat" (2:22)
4. "Industry" (2:38)
5. "I am Truck, Eh" (3:10)
6. "Pan the Goat God" (5:20)
7. "The Twist" (5:28)
8. "Seattle Spotboard Prize" (4:09)
9. "...and mom's pots" (1:05)
10. "Nestor and Methusaleh Reminisce" (2:33)
11. "Spycam" (6:45)-

Лог создания рипа

Exact Audio Copy V1.3 from 2. September 2016
EAC extraction logfile from 4. June 2018, 19:59
Face Ditch / Face Ditch
Used drive : HL-DT-STDVD-RAM GHC0N Adapter: 1 ID: 0
Read mode : SecureUtilize accurate stream : YesDefeat audio cache : YesMake use of C2 pointers : No
Read offset correction : 6Overread into Lead-In and Lead-Out : NoFill up missing offset samples with silence : YesDelete leading and trailing silent blocks : NoNull samples used in CRC calculations : YesUsed interface : Native Win32 interface for Win NT & 2000Gap handling : Appended to previous track
Used output format : User Defined EncoderSelected bitrate : 1024 kBit/sQuality : HighAdd ID3 tag : NoCommand line compressor : C:\Program Files (x86)\foobar2000\encoders\flac.exeAdditional command line options : -8 -e -p -V -T "ARTIST=%artist%" -T "TITLE=%title%" -T "ALBUM=%albumtitle%" -T "DATE=%year%" -T "TRACKNUMBER=%tracknr%" -T "GENRE=%genre%" -T "PERFORMER=%albuminterpret%" -T "COMPOSER=%composer%" %haslyrics%--tag-from-file=LYRICS="%lyricsfile%"%haslyrics% -T "ALBUMARTIST=%albumartist%" -T "DISCNUMBER=%cdnumber%" -T "TOTALDISCS=%totalcds%" -T "TOTALTRACKS=%numtracks%" -T "COMMENT=%comment%" %source% -o %dest%
TOC of the extracted CD
Track | Start | Length | Start sector | End sector --------------------------------------------------------- 1 | 0:00.00 | 3:44.00 | 0 | 16799 2 | 3:44.00 | 3:12.27 | 16800 | 31226 3 | 6:56.27 | 2:22.20 | 31227 | 41896 4 | 9:18.47 | 2:38.13 | 41897 | 53759 5 | 11:56.60 | 3:10.30 | 53760 | 68039 6 | 15:07.15 | 5:20.25 | 68040 | 92064 7 | 20:27.40 | 5:28.57 | 92065 | 116721 8 | 25:56.22 | 4:09.15 | 116722 | 135411 9 | 30:05.37 | 1:05.38 | 135412 | 140324 10 | 31:11.00 | 2:33.12 | 140325 | 151811 11 | 33:44.12 | 6:45.13 | 151812 | 182199
Track 1
Filename C:\Face Ditch - Face Ditch [FLAC]\01 Apples.wav
Pre-gap length 0:00:02.00
Peak level 96.6 % Extraction speed 1.7 X Track quality 100.0 % Test CRC 4E44AC13 Copy CRC 4E44AC13 Accurately ripped (confidence 1) [23A6971C] (AR v2) Copy OK
Track 2
Filename C:\Face Ditch - Face Ditch [FLAC]\02 Goin' Downtown Once Again.wav
Pre-gap length 0:00:01.33
Peak level 99.7 % Extraction speed 1.9 X Track quality 100.0 % Test CRC 4DA0D76E Copy CRC 4DA0D76E Accurately ripped (confidence 1) [F5634CC4] (AR v2) Copy OK
Track 3
Filename C:\Face Ditch - Face Ditch [FLAC]\03 Space Flight Cat.wav
Peak level 99.8 % Extraction speed 1.9 X Track quality 100.0 % Test CRC 78655244 Copy CRC 78655244 Accurately ripped (confidence 1) [EB34E422] (AR v2) Copy OK
Track 4
Filename C:\Face Ditch - Face Ditch [FLAC]\04 Industry.wav
Peak level 94.6 % Extraction speed 2.0 X Track quality 100.0 % Test CRC 1466BA72 Copy CRC 1466BA72 Accurately ripped (confidence 1) [4DECA7BC] (AR v2) Copy OK
Track 5
Filename C:\Face Ditch - Face Ditch [FLAC]\05 I Am Truck, Eh.wav
Peak level 99.8 % Extraction speed 2.2 X Track quality 100.0 % Test CRC 8E0D5820 Copy CRC 8E0D5820 Accurately ripped (confidence 1) [37FDDEC4] (AR v2) Copy OK
Track 6
Filename C:\Face Ditch - Face Ditch [FLAC]\06 Pan the Goat God.wav
Peak level 99.8 % Extraction speed 2.3 X Track quality 99.9 % Test CRC 1CBDD986 Copy CRC 1CBDD986 Accurately ripped (confidence 1) [C749BF9C] (AR v2) Copy OK
Track 7
Filename C:\Face Ditch - Face Ditch [FLAC]\07 The Twist.wav
Peak level 97.5 % Extraction speed 2.7 X Track quality 100.0 % Test CRC 850F2E31 Copy CRC 850F2E31 Accurately ripped (confidence 1) [BEC46C1C] (AR v2) Copy OK
Track 8
Filename C:\Face Ditch - Face Ditch [FLAC]\08 Seattle Spotboard Prize.wav
Peak level 98.7 % Extraction speed 2.8 X Track quality 100.0 % Test CRC 5FF76D6A Copy CRC 5FF76D6A Accurately ripped (confidence 1) [4F2F7D98] (AR v2) Copy OK
Track 9
Filename C:\Face Ditch - Face Ditch [FLAC]\09 ''...and mom's pots''.wav
Peak level 99.5 % Extraction speed 2.1 X Track quality 100.0 % Test CRC CC7D939A Copy CRC CC7D939A Accurately ripped (confidence 1) [AC1EFB56] (AR v2) Copy OK
Track 10
Filename C:\Face Ditch - Face Ditch [FLAC]\10 Nestor and Methusaleh Reminisce.wav
Peak level 96.5 % Extraction speed 2.7 X Track quality 100.0 % Test CRC 037F1E8A Copy CRC 037F1E8A Accurately ripped (confidence 1) [538D7B5A] (AR v2) Copy OK
Track 11
Filename C:\Face Ditch - Face Ditch [FLAC]\11 Spycam.wav
Pre-gap length 0:00:01.49
Peak level 99.8 % Extraction speed 3.2 X Track quality 100.0 % Test CRC E38C2EE0 Copy CRC E38C2EE0 Accurately ripped (confidence 1) [A21EF2EF] (AR v2) Copy OK
All tracks accurately ripped
No errors occurred
End of status report
---- CUETools DB Plugin V2.1.6
[CTDB TOCID: 44u.JmZgNhegTZt4oULgzAZPMNY-] foundSubmit result: 44u.JmZgNhegTZt4oULgzAZPMNY- has been confirmedTrack | CTDB Status 1 | (1/1) Accurately ripped 2 | (1/1) Accurately ripped 3 | (1/1) Accurately ripped 4 | (1/1) Accurately ripped 5 | (1/1) Accurately ripped 6 | (1/1) Accurately ripped 7 | (1/1) Accurately ripped 8 | (1/1) Accurately ripped 9 | (1/1) Accurately ripped 10 | (1/1) Accurately ripped 11 | (1/1) Accurately ripped
==== Log checksum 357F2D50827F743C13758FA2786A0E3A6404D4AB4F6278A509751FAE083C2BB4 ====

Содержание индексной карты (.CUE)

REM GENRE "Experimental Rock"REM DATE 2004REM DISCID 94097D0BREM COMMENT "ExactAudioCopy v1.3"PERFORMER "Face Ditch"TITLE "Face Ditch"FILE "01 Apples.flac" WAVE TRACK 01 AUDIO TITLE "Apples" PERFORMER "Face Ditch" INDEX 01 00:00:00 TRACK 02 AUDIO TITLE "Goin' Downtown Once Again" PERFORMER "Face Ditch" INDEX 00 03:42:50FILE "02 Goin' Downtown Once Again.flac" WAVE INDEX 01 00:00:00FILE "03 Space Flight Cat.flac" WAVE TRACK 03 AUDIO TITLE "Space Flight Cat" PERFORMER "Face Ditch" INDEX 01 00:00:00FILE "04 Industry.flac" WAVE TRACK 04 AUDIO TITLE "Industry" PERFORMER "Face Ditch" INDEX 01 00:00:00FILE "05 I Am Truck, Eh.flac" WAVE TRACK 05 AUDIO TITLE "I Am Truck, Eh" PERFORMER "Face Ditch" INDEX 01 00:00:00FILE "06 Pan the Goat God.flac" WAVE TRACK 06 AUDIO TITLE "Pan the Goat God" PERFORMER "Face Ditch" INDEX 01 00:00:00FILE "07 The Twist.flac" WAVE TRACK 07 AUDIO TITLE "The Twist" PERFORMER "Face Ditch" INDEX 01 00:00:00FILE "08 Seattle Spotboard Prize.flac" WAVE TRACK 08 AUDIO TITLE "Seattle Spotboard Prize" PERFORMER "Face Ditch" INDEX 01 00:00:00FILE "09 ''...and mom's pots''.flac" WAVE TRACK 09 AUDIO TITLE ""...and mom's pots"" PERFORMER "Face Ditch" INDEX 01 00:00:00FILE "10 Nestor and Methusaleh Reminisce.flac" WAVE TRACK 10 AUDIO TITLE "Nestor and Methusaleh Reminisce" PERFORMER "Face Ditch" INDEX 01 00:00:00 TRACK 11 AUDIO TITLE "Spycam" PERFORMER "Face Ditch" INDEX 00 02:31:50FILE "11 Spycam.flac" WAVE INDEX 01 00:00:00

2005 - Super Sale

[img=right]https://i104.fastpic.ru/big/2018/0605/67/b23ce56b5b...1d1367.jpg[/img]
Label: Build-a-Buzz
Catalog#: 002
Продолжительность: 00:38:01
Трэклист:
1. "Since the 11th" (3:43)
2. "Holidays in Ping Pong" (3:05)
3. "Desert Cruising" (2:26)
4. "How the West Was Wrong" (3:47)
5. "Austin Noto" (3:50)
6. "90/30" (1:40)
7. "Pan the Goat" (1:34)
8. "Zak" (1:12)
9. "The West" (1:40)
10. "Ozzie Goes to Hollywood" (1:40)
11. "Hoverlude" (2:25)
12. "Merry-Go-Treadmill" (2:37)
13. "Two Freaks Cruising Lombard Listening to The Ventures" (2:10)
14. "All Borderlines" (3:14)
15. "The Beast" (2:51)-

Лог создания рипа

Exact Audio Copy V1.3 from 2. September 2016
EAC extraction logfile from 21. May 2018, 18:52
Caveman Shoestore / Super Sale
Used drive : HL-DT-STDVD-RAM GHC0N Adapter: 1 ID: 0
Read mode : SecureUtilize accurate stream : YesDefeat audio cache : YesMake use of C2 pointers : No
Read offset correction : 6Overread into Lead-In and Lead-Out : NoFill up missing offset samples with silence : YesDelete leading and trailing silent blocks : NoNull samples used in CRC calculations : YesUsed interface : Native Win32 interface for Win NT & 2000Gap handling : Appended to previous track
Used output format : User Defined EncoderSelected bitrate : 1024 kBit/sQuality : HighAdd ID3 tag : NoCommand line compressor : C:\Program Files (x86)\foobar2000\encoders\flac.exeAdditional command line options : -8 -e -p -V -T "ARTIST=%artist%" -T "TITLE=%title%" -T "ALBUM=%albumtitle%" -T "DATE=%year%" -T "TRACKNUMBER=%tracknr%" -T "GENRE=%genre%" -T "PERFORMER=%albuminterpret%" -T "COMPOSER=%composer%" %haslyrics%--tag-from-file=LYRICS="%lyricsfile%"%haslyrics% -T "ALBUMARTIST=%albumartist%" -T "DISCNUMBER=%cdnumber%" -T "TOTALDISCS=%totalcds%" -T "TOTALTRACKS=%numtracks%" -T "COMMENT=%comment%" %source% -o %dest%
TOC of the extracted CD
Track | Start | Length | Start sector | End sector --------------------------------------------------------- 1 | 0:00.00 | 3:43.72 | 0 | 16796 2 | 3:43.72 | 3:05.18 | 16797 | 30689 3 | 6:49.15 | 2:26.27 | 30690 | 41666 4 | 9:15.42 | 3:47.58 | 41667 | 58749 5 | 13:03.25 | 3:50.47 | 58750 | 76046 6 | 16:53.72 | 1:40.23 | 76047 | 83569 7 | 18:34.20 | 1:34.22 | 83570 | 90641 8 | 20:08.42 | 1:12.55 | 90642 | 96096 9 | 21:21.22 | 1:40.68 | 96097 | 103664 10 | 23:02.15 | 1:40.52 | 103665 | 111216 11 | 24:42.67 | 2:25.30 | 111217 | 122121 12 | 27:08.22 | 2:37.20 | 122122 | 133916 13 | 29:45.42 | 2:10.66 | 133917 | 143732 14 | 31:56.33 | 3:14.22 | 143733 | 158304 15 | 35:10.55 | 2:50.48 | 158305 | 171102
Track 1
Filename C:\Users\Neil\Desktop\Caveman Shoestore - Super Sale [FLAC]\01 Since the 11th.wav
Pre-gap length 0:00:02.00
Peak level 100.0 % Extraction speed 2.5 X Track quality 100.0 % Test CRC E8D1E0E6 Copy CRC E8D1E0E6 Accurately ripped (confidence 1) [0432E7A2] (AR v2) Copy OK
Track 2
Filename C:\Users\Neil\Desktop\Caveman Shoestore - Super Sale [FLAC]\02 Holidays in Ping Pong.wav
Pre-gap length 0:00:00.46
Peak level 100.0 % Extraction speed 2.0 X Track quality 99.9 % Test CRC 14DA995A Copy CRC 14DA995A Accurately ripped (confidence 1) [B18B2855] (AR v2) Copy OK
Track 3
Filename C:\Users\Neil\Desktop\Caveman Shoestore - Super Sale [FLAC]\03 Desert Cruising.wav
Peak level 98.3 % Extraction speed 2.8 X Track quality 100.0 % Test CRC AADC1B52 Copy CRC AADC1B52 Accurately ripped (confidence 1) [0921976F] (AR v2) Copy OK
Track 4
Filename C:\Users\Neil\Desktop\Caveman Shoestore - Super Sale [FLAC]\04 How the West Was Wrong.wav
Peak level 100.0 % Extraction speed 3.1 X Track quality 100.0 % Test CRC 8290FA23 Copy CRC 8290FA23 Accurately ripped (confidence 1) [791FC3FB] (AR v2) Copy OK
Track 5
Filename C:\Users\Neil\Desktop\Caveman Shoestore - Super Sale [FLAC]\05 Austin Noto.wav
Peak level 93.5 % Extraction speed 3.4 X Track quality 100.0 % Test CRC E464D9E7 Copy CRC E464D9E7 Accurately ripped (confidence 1) [C900F06B] (AR v2) Copy OK
Track 6
Filename C:\Users\Neil\Desktop\Caveman Shoestore - Super Sale [FLAC]\06 90,30.wav
Peak level 90.4 % Extraction speed 3.0 X Track quality 100.0 % Test CRC 6031DB10 Copy CRC 6031DB10 Accurately ripped (confidence 1) [4419FE39] (AR v2) Copy OK
Track 7
Filename C:\Users\Neil\Desktop\Caveman Shoestore - Super Sale [FLAC]\07 Pan the Goat God.wav
Peak level 99.3 % Extraction speed 1.9 X Track quality 99.8 % Test CRC 164D8425 Copy CRC 164D8425 Accurately ripped (confidence 1) [EB4109FE] (AR v2) Copy OK
Track 8
Filename C:\Users\Neil\Desktop\Caveman Shoestore - Super Sale [FLAC]\08 Zak.wav
Peak level 100.0 % Extraction speed 1.7 X Track quality 99.8 % Test CRC CC90DBEB Copy CRC CC90DBEB Accurately ripped (confidence 1) [EF208720] (AR v2) Copy OK
Track 9
Filename C:\Users\Neil\Desktop\Caveman Shoestore - Super Sale [FLAC]\09 The West.wav
Peak level 89.0 % Extraction speed 2.0 X Track quality 99.8 % Test CRC 865369FB Copy CRC 865369FB Accurately ripped (confidence 1) [74D0569F] (AR v2) Copy OK
Track 10
Filename C:\Users\Neil\Desktop\Caveman Shoestore - Super Sale [FLAC]\10 Ozzie Goes to Hollywood.wav
Peak level 98.9 % Extraction speed 3.2 X Track quality 100.0 % Test CRC 3DEBB771 Copy CRC 3DEBB771 Accurately ripped (confidence 1) [44DFDFAE] (AR v2) Copy OK
Track 11
Filename C:\Users\Neil\Desktop\Caveman Shoestore - Super Sale [FLAC]\11 Hoverlude.wav
Peak level 70.5 % Extraction speed 2.6 X Track quality 99.9 % Test CRC 1E4CF021 Copy CRC 1E4CF021 Accurately ripped (confidence 1) [5909F30C] (AR v2) Copy OK
Track 12
Filename C:\Users\Neil\Desktop\Caveman Shoestore - Super Sale [FLAC]\12 Merry-Go-Treadmill.wav
Peak level 98.4 % Extraction speed 3.8 X Track quality 100.0 % Test CRC 2F4F5E3C Copy CRC 2F4F5E3C Accurately ripped (confidence 1) [7A5314D8] (AR v2) Copy OK
Track 13
Filename C:\Users\Neil\Desktop\Caveman Shoestore - Super Sale [FLAC]\13 Two Freaks Cruising Lombard Listening to The Ventures.wav
Peak level 95.6 % Extraction speed 3.8 X Track quality 100.0 % Test CRC 2EF83015 Copy CRC 2EF83015 Accurately ripped (confidence 1) [EE78A32A] (AR v2) Copy OK
Track 14
Filename C:\Users\Neil\Desktop\Caveman Shoestore - Super Sale [FLAC]\14 All Borderlines.wav
Peak level 99.1 % Extraction speed 4.2 X Track quality 100.0 % Test CRC 1353917D Copy CRC 1353917D Accurately ripped (confidence 1) [2EE25CCC] (AR v2) Copy OK
Track 15
Filename C:\Users\Neil\Desktop\Caveman Shoestore - Super Sale [FLAC]\15 The Beast.wav
Peak level 100.0 % Extraction speed 3.0 X Track quality 99.9 % Test CRC 06F97DB6 Copy CRC 06F97DB6 Accurately ripped (confidence 1) [91A5FB10] (AR v2) Copy OK
All tracks accurately ripped
No errors occurred
End of status report
---- CUETools DB Plugin V2.1.6
[CTDB TOCID: LbSEr0MdHUPt86w3_GjkXWUFH_w-] foundSubmit result: LbSEr0MdHUPt86w3_GjkXWUFH_w- has been confirmedTrack | CTDB Status 1 | (1/1) Accurately ripped 2 | (1/1) Accurately ripped 3 | (1/1) Accurately ripped 4 | (1/1) Accurately ripped 5 | (1/1) Accurately ripped 6 | (1/1) Accurately ripped 7 | (1/1) Accurately ripped 8 | (1/1) Accurately ripped 9 | (1/1) Accurately ripped 10 | (1/1) Accurately ripped 11 | (1/1) Accurately ripped 12 | (1/1) Accurately ripped 13 | (1/1) Accurately ripped 14 | (1/1) Accurately ripped 15 | (1/1) Accurately ripped
==== Log checksum FEF806837CFFCA104922D53A4B6D2D055CBF32F5CE2EC9A61EDFD022B94E8BD8 ====

Содержание индексной карты (.CUE)

REM GENRE "Progressive Rock"REM DATE 2005REM DISCID B308E90FREM COMMENT "ExactAudioCopy v1.3"PERFORMER "Caveman Shoestore"TITLE "Super Sale"FILE "01 Since the 11th.flac" WAVE TRACK 01 AUDIO TITLE "Since the 11th" PERFORMER "Caveman Shoestore" INDEX 01 00:00:00 TRACK 02 AUDIO TITLE "Holidays in Ping Pong" PERFORMER "Caveman Shoestore" INDEX 00 03:43:37FILE "02 Holidays in Ping Pong.flac" WAVE INDEX 01 00:00:00FILE "03 Desert Cruising.flac" WAVE TRACK 03 AUDIO TITLE "Desert Cruising" PERFORMER "Caveman Shoestore" INDEX 01 00:00:00FILE "04 How the West Was Wrong.flac" WAVE TRACK 04 AUDIO TITLE "How the West Was Wrong" PERFORMER "Caveman Shoestore" INDEX 01 00:00:00FILE "05 Austin Noto.flac" WAVE TRACK 05 AUDIO TITLE "Austin Noto" PERFORMER "Caveman Shoestore" INDEX 01 00:00:00FILE "06 90-30.flac" WAVE TRACK 06 AUDIO TITLE "90/30" PERFORMER "Caveman Shoestore" INDEX 01 00:00:00FILE "07 Pan the Goat God.flac" WAVE TRACK 07 AUDIO TITLE "Pan the Goat God" PERFORMER "Caveman Shoestore" INDEX 01 00:00:00FILE "08 Zak.flac" WAVE TRACK 08 AUDIO TITLE "Zak" PERFORMER "Caveman Shoestore" INDEX 01 00:00:00FILE "09 The West.flac" WAVE TRACK 09 AUDIO TITLE "The West" PERFORMER "Caveman Shoestore" INDEX 01 00:00:00FILE "10 Ozzie Goes to Hollywood.flac" WAVE TRACK 10 AUDIO TITLE "Ozzie Goes to Hollywood" PERFORMER "Caveman Shoestore" INDEX 01 00:00:00FILE "11 Hoverlude.flac" WAVE TRACK 11 AUDIO TITLE "Hoverlude" PERFORMER "Caveman Shoestore" INDEX 01 00:00:00FILE "12 Merry-Go-Treadmill.flac" WAVE TRACK 12 AUDIO TITLE "Merry-Go-Treadmill" PERFORMER "Caveman Shoestore" INDEX 01 00:00:00FILE "13 Two Freaks Cruising Lombard Listening to The Ventures.flac" WAVE TRACK 13 AUDIO TITLE "Two Freaks Cruising Lombard Listening to The Ventures" PERFORMER "Caveman Shoestore" INDEX 01 00:00:00FILE "14 All Borderlines.flac" WAVE TRACK 14 AUDIO TITLE "All Borderlines" PERFORMER "Caveman Shoestore" INDEX 01 00:00:00FILE "15 The Beast.flac" WAVE TRACK 15 AUDIO TITLE "The Beast" PERFORMER "Caveman Shoestore" INDEX 01 00:00:00


[torrentc.info]_t_4868773.torrent
Торрент: Зарегистрирован ·  [ 2018-06-16 23:30 ] ·  16efcb5f59773fc3df4f080bb3e5c508140c2a0b

28 KB

Статус: проверено
Скачан: 0 раз
Размер: 1.84 GB
Оценка: 
(Голосов: 0)
Сказали спасибо: 0  Спасибо
Похожие темы
[Профиль]    [ЛС]
Показать сообщения:    
Ответить на тему

Текущее время: Сегодня 18:33

Часовой пояс: GMT + 7



Вы не можете начинать темы
Вы не можете отвечать на сообщения
Вы не можете редактировать свои сообщения
Вы не можете удалять свои сообщения
Вы не можете голосовать в опросах
Вы не можете прикреплять файлы к сообщениям
Вы можете скачивать файлы