(RIO / Avant-Prog) [WEB] PoiL - L\'ire des papes / Dins o cuol - 2017, FLAC (tracks), lossless

Ответить на тему
Статистика раздачи [Обновить пиров]
Размер:  526 MB   |    Зарегистрирован:  3 месяца 4 дня   |    Скачан:  0 раз

Полного источника не было: Никогда

 
   
 
 
 
Автор Сообщение

torrentc.info

Создавать темы 16-Июн-2018 23:32

[Цитировать]

PoiL / L'ire des papes / Dins o cuol
Жанр: RIO / Avant-Prog
Носитель: WEB
Год издания: 2017
Издатель (лейбл): Web Release
Страна исполнителя (группы): France
Аудиокодек: FLAC (*.flac)
Тип рипа: tracks
Битрейт аудио: lossless
Продолжительность: 97:44 min
Источник (релизер): bandcamp.com
Наличие сканов в содержимом раздачи:
Треклист:
1. Vilain mandarin. 9:10
2. Ondine Ravel - arr G. Meier. 8:08
3. Monde de Mû - Twang. 12:38
4. Monde de Mû - L'Océan d'Aztla. 8:38
5. Monde de Mû - Bataille d'outres. 5:21
6. Opuscul. 6:41
7. Ultima Ratio Regum - Chopin Etude 12 op. 6:53
8. Tronche à cul. 6:49
9. Trouille cosmique. 9:57
10. Dins o cuol. 9:09
11. Vilain mandarin. 14:14

DRM.log

foobar2000 1.3.8 / Dynamic Range Meter 1.1.1log date: 2018-06-12 15:08:34
--------------------------------------------------------------------------------Analyzed: PoiL / L'ire des papes / Dins o cuol--------------------------------------------------------------------------------
DR Peak RMS Duration Track--------------------------------------------------------------------------------DR12 -0.26 dB -16.22 dB 9:11 01-Vilain mandarinDR13 -0.26 dB -16.68 dB 8:09 02-Ondine Ravel - arr G. MeierDR13 -0.26 dB -17.03 dB 12:39 03-Monde de Mû - TwangDR14 -0.26 dB -17.83 dB 8:39 04-Monde de Mû - L'Océan d'AztlaDR14 -0.26 dB -18.12 dB 5:21 05-Monde de Mû - Bataille d'outresDR13 -0.26 dB -16.51 dB 6:41 06-OpusculDR10 -0.84 dB -14.62 dB 6:54 07-Ultima Ratio Regum - Chopin Etude 12 opDR7 -0.10 dB -10.08 dB 6:50 08-Tronche à culDR7 0.00 dB -9.79 dB 9:58 09-Trouille cosmiqueDR8 0.00 dB -10.34 dB 9:10 10-Dins o cuolDR9 0.00 dB -13.49 dB 14:14 11-Vilain mandarin--------------------------------------------------------------------------------
Number of tracks: 11Official DR value: DR11
Samplerate: 44100 HzChannels: 2Bits per sample: 16Bitrate: 553 kbpsCodec: FLAC================================================================================

Лог проверки качества

-----------------------
DON'T MODIFY THIS FILE
-----------------------
PERFORMER: auCDtect Task Manager, ver. 1.6.0 RC1 build 1.6.0.1Copyright (c) 2008-2010 y-soft. All rights reservedhttp://y-soft.org
ANALYZER: auCDtect: CD records authenticity detector, version 0.8.2Copyright (c) 2004 Oleg Berngardt. All rights reserved.Copyright (c) 2004 Alexander Djourik. All rights reserved.
FILE: 01. Vilain mandarin.flac Size: 47267199 Hash: 3425CFE974F51862F754092C1FEB0BA2 Accuracy: -m0 Conclusion: CDDA 100% Signature: D356ACE350EDFE5EB2EB643945949F081A75056FFILE: 02. Ondine Ravel - arr G. Meier.flac Size: 45321382 Hash: D503DABE6466DFEECC4DE557ACEB766B Accuracy: -m0 Conclusion: CDDA 100% Signature: 82BDF76E37DB6588B751B873857615515E99FF81FILE: 03. Monde de Mû - Twang.flac Size: 71503149 Hash: B8708ED1A9748A7443286CAF7E6D1F03 Accuracy: -m0 Conclusion: CDDA 100% Signature: 14AA167FB45277D3C25F5DE7DF6B0FB6107413C3FILE: 04. Monde de Mû - L'Océan d'Aztla.flac Size: 41814699 Hash: 5C3D3822274E33D263583C772E720EC1 Accuracy: -m0 Conclusion: CDDA 100% Signature: 004CCB65CE542BA4324A95B7A5614CFBEEFC7FB0FILE: 05. Monde de Mû - Bataille d'outres.flac Size: 25479757 Hash: C286FAA201F9B34394279228466F0957 Accuracy: -m0 Conclusion: CDDA 99% Signature: DA5F1CFA209F8D154E42E117BC66FE4DDEB8BCBFFILE: 06. Opuscul.flac Size: 33763117 Hash: 01EEF5B5BEB0863A45BC9E25F30AC4C5 Accuracy: -m0 Conclusion: CDDA 100% Signature: 5E9361F7CE0559E273F6E67B550588CBF3DEB85FFILE: 07. Ultima Ratio Regum - Chopin Etude 12 op.flac Size: 38086047 Hash: 9223D571BE5411F921E6CB6CA82CDEF4 Accuracy: -m0 Conclusion: CDDA 100% Signature: F41718777A691C96DC8B92CD14BB34180C45490CFILE: 08. Tronche à cul.flac Size: 48321631 Hash: CC8E17722AB866974A6506E0675B0606 Accuracy: -m0 Conclusion: CDDA 100% Signature: 10FCB1BFF61B00AE94255154938CAF45E85852FAFILE: 09. Trouille cosmique.flac Size: 69746977 Hash: 3C29090F23B68E6204D2DCF6889B8F68 Accuracy: -m0 Conclusion: CDDA 100% Signature: 07690493D5BBE414F9ED3E3A9705A89D70AC37D0FILE: 10. Dins o cuol.flac Size: 62370073 Hash: 694521E4E41FA3BCC102D56E6FF091AB Accuracy: -m0 Conclusion: CDDA 100% Signature: 91D1D169E1CE05F05F5EC31029C7A8A8473AEBDCFILE: 11. Vilain mandarin.flac Size: 59183661 Hash: E9621233BA91DED8C91571BD27182D1A Accuracy: -m0 Conclusion: CDDA 100% Signature: F7292B0063A4F26163AD7E9F36AA3D14A4CD5405

Об альбоме (сборнике)

Recorded by Julien Couturier
Recorded at La Ruche by Spinoz
Mixed by Ananda Cherer
Executive production by Clement Dupuis
© Dur et Doux under the exclusive licence to Freakshow records
released November 20, 2017

Состав

- Antoine Arnera / piano, keyboards
- Guilhem Meier / drums
- Boris Cassone / double bass


[torrentc.info]_t_5573643.torrent
Торрент: Зарегистрирован ·  [ 2018-06-16 23:30 ] ·  d4c5f3b9277fadacff8b6db5b130aff18f891469

12 KB

Статус: проверено
Скачан: 0 раз
Размер: 526 MB
Оценка: 
(Голосов: 0)
Сказали спасибо: 0  Спасибо
Похожие темы
[Профиль]    [ЛС]
Показать сообщения:    
Ответить на тему

Текущее время: Сегодня 13:47

Часовой пояс: GMT + 7



Вы не можете начинать темы
Вы не можете отвечать на сообщения
Вы не можете редактировать свои сообщения
Вы не можете удалять свои сообщения
Вы не можете голосовать в опросах
Вы не можете прикреплять файлы к сообщениям
Вы можете скачивать файлы