(Neo-Prog) [CDR] Peter Gee (Pendragon) - The Bible - 2018, FLAC (image+.cue), lossless

Ответить на тему
Статистика раздачи [Обновить пиров]
Размер:  441 MB   |    Зарегистрирован:  1 месяц 6 дней   |    Скачан:  1 раз

Полного источника не было: 1 месяц 1 день

 
   
 
 
 
Автор Сообщение

torrentc.info

Создавать темы 15-Июн-2018 04:56

[Цитировать]

Peter Gee / The Bible
[img=right]https://b.radikal.ru/b13/1805/d2/5285ffdd1299.jpg[/img]
Жанр: Neo-Prog
Носитель: CDR
Год издания: 2018
Издатель (лейбл): White Knight Records / CDR копия
Страна исполнителя (группы): UK
Аудиокодек: FLAC (*.flac)
Тип рипа: image+.cue
Битрейт аудио: lossless
Продолжительность: 68:49
Источник (релизер): [url=profile.php?mode=viewprofile&u=952751]erro[/url]
Наличие сканов в содержимом раздачи: нет
Треклист:
01. Creation (1:26)
02. Adam and Eve (2:13)
03. The Fall (2:13)
04. The Flood (2:10)
05. The Stars in the Sky (2:35)
06. Jacob's Ladder (1:28)
07. The Dreamer (2:34)
08. Exodus (2:34)
09. Crossing the Sea (2:59)
10. The Law (2:28)
11. Walls of Jericho (2:05)
12. Samson and Delilah (1:51)
13. Called in the Night (1:30)
14. King of Israel (2:56)
15. David and Goliath (3:08)
16. Wisdom (2:27)
17. The Prophets (1:24)
18. A Voice Crying Out (2:43)
19. Daniel and the Lions' Den (2:43)
20. Prepare the Way of the Lord (1:17)
21. Saviour of the World (2:41)
22. The Kingdom of God (2:39)
23. The Cross (2:00)
24. Resurrection Day (3:01)
25. Spirit (3:00)
26. The Road to Emmaus (2:30)
27. The Gospel (3:36)
28. Revelation (4:23)

Лог создания рипа

Exact Audio Copy V1.3 from 2. September 2016
EAC atskaite par izvilkšanu, izpildīta 3. maijā 2018, 15:49
Peter Gee / The Bible
Diskierīce: TSSTcorpCD/DVDW SH-S182M Adapter: 1 ID: 0
Lasīšanas režīms : DrošībaPrecīzas plūsmas izmantošana : JāAudio keša atslēgšana : JāC2 norāžu izmantošana : Nē
Pārvirzes korekcija pie lasīšanas : 6Spēja lasīt Lead-in un Lead-out rajonus : NēIzlaisto semplu aizpildīšana ar klusumu : JāKlusuma bloku izmešana sākumā un beigās : NēIzskaitļojot CRC tika izmantoti nuļļu sempli : JāInterfeiss : Uzstādītais ārējais ASPI-interfeiss
Izejas formāts : Lietotāja kodētājsIzvēlētais bitreits : 32 kBit/sKvalitāte : ZemaID3-tega pievienošana : NēSaspiešanas utilīta : C:\Program Files\Exact Audio Copy\Flac\flac.exePapildus parametri : -8 -V -T "ARTIST=%artist%" -T "ALBUM=%albumtitle%" -T "DATE=%year%" -T "GENRE=%genre%" -T "COMMENT=EAC FLAC -8" %source%
TOC izvilktā CD
Treks | Starts | Ilgums | Sākuma sektors | Beigu sektors -------------------------------------------------------------- 1 | 0:00.00 | 1:26.74 | 0 | 6523 2 | 1:26.74 | 2:13.41 | 6524 | 16539 3 | 3:40.40 | 2:13.09 | 16540 | 26523 4 | 5:53.49 | 2:10.07 | 26524 | 36280 5 | 8:03.56 | 2:35.58 | 36281 | 47963 6 | 10:39.39 | 1:28.47 | 47964 | 54610 7 | 12:08.11 | 2:34.72 | 54611 | 66232 8 | 14:43.08 | 2:34.64 | 66233 | 77846 9 | 17:17.72 | 2:59.25 | 77847 | 91296 10 | 20:17.22 | 2:28.65 | 91297 | 102461 11 | 22:46.12 | 2:05.06 | 102462 | 111842 12 | 24:51.18 | 1:51.70 | 111843 | 120237 13 | 26:43.13 | 1:30.42 | 120238 | 127029 14 | 28:13.55 | 2:56.26 | 127030 | 140255 15 | 31:10.06 | 3:08.03 | 140256 | 154358 16 | 34:18.09 | 2:27.60 | 154359 | 165443 17 | 36:45.69 | 1:24.29 | 165444 | 171772 18 | 38:10.23 | 2:43.66 | 171773 | 184063 19 | 40:54.14 | 2:43.47 | 184064 | 196335 20 | 43:37.61 | 1:17.46 | 196336 | 202156 21 | 44:55.32 | 2:41.38 | 202157 | 214269 22 | 47:36.70 | 2:39.72 | 214270 | 226266 23 | 50:16.67 | 2:00.73 | 226267 | 235339 24 | 52:17.65 | 3:01.27 | 235340 | 248941 25 | 55:19.17 | 3:00.13 | 248942 | 262454 26 | 58:19.30 | 2:30.38 | 262455 | 273742 27 | 60:49.68 | 3:36.49 | 273743 | 289991 28 | 64:26.42 | 4:23.23 | 289992 | 309739
Izvilkšanas diapazona raksturojumi un paziņojumi par kļūdām
Izvēlētais diapazons
Faila vārds C:\Program Files\BitComet\Downloads\Peter Gee - The Bible (2018)\Peter Gee - The Bible.wav
Maksimuma līmenis 98.4 % Izvilkšanas ātrums 6.2 X Diapazona kvalitāte 99.9 % CRC kopijas DB37172E Kopēšana... OK
Kļūdas neradās
AccurateRip: pārskats
Treks 1 nav datu bāzēTreks 2 nav datu bāzēTreks 3 nav datu bāzēTreks 4 nav datu bāzēTreks 5 nav datu bāzēTreks 6 nav datu bāzēTreks 7 nav datu bāzēTreks 8 nav datu bāzēTreks 9 nav datu bāzēTreks 10 nav datu bāzēTreks 11 nav datu bāzēTreks 12 nav datu bāzēTreks 13 nav datu bāzēTreks 14 nav datu bāzēTreks 15 nav datu bāzēTreks 16 nav datu bāzēTreks 17 nav datu bāzēTreks 18 nav datu bāzēTreks 19 nav datu bāzēTreks 20 nav datu bāzēTreks 21 nav datu bāzēTreks 22 nav datu bāzēTreks 23 nav datu bāzēTreks 24 nav datu bāzēTreks 25 nav datu bāzēTreks 26 nav datu bāzēTreks 27 nav datu bāzēTreks 28 nav datu bāzē
Neviena treka nav AccurateRip bāzē
Atskaites beigas
---- CUETools DB Plugin V2.1.6
[CTDB TOCID: GgJV0G_nAxZ_XZI9vS4sMKuJuAQ-] disk not present in databaseSubmit result: GgJV0G_nAxZ_XZI9vS4sMKuJuAQ- has been uploaded
==== Atskaites kontrolsumma 3772CFE8453CA25B0114E0F2C7C20A794D810DC35228112277C4C89DA5CA05A7 ====

Лог проверки качества

AUDIOCHECKER v1.2 - by Dester - opdester@freemail.hu~~~~~~~~~~~~~~~~~
1 -===- C:\Program Files\BitComet\Downloads\Peter Gee - The Bible (2018)\Peter Gee - The Bible.flac Extracted successfully Conclusion: This track looks like CDDA with probability 100%

Об исполнителе (группе)

http://www.progarchives.com/artist.asp?id=125

Об альбоме (сборнике)

http://www.progarchives.com/album.asp?id=57190

Состав

- Peter Gee (Pendragon) / instruments
With:
- Josh Brown / vocals
- Becky Brannigan / vocals
- Hayley Oliver / vocals
- Steve Christey (Jadis) / drums
- Rhiannon Davies / violin
- Daniel Bristow / trumpet
- John Taylor / narration


[torrentc.info]_t_5574624.torrent
Торрент: Зарегистрирован ·  [ 2018-06-15 04:56 ] ·  2a164b813b415f6f90032fcac558429bd8e696a7

36 KB

Статус: проверено
Скачан: 1 раз
Размер: 441 MB
Оценка: 
(Голосов: 0)
Сказали спасибо: 0  Спасибо
Похожие темы
[Профиль]    [ЛС]
Показать сообщения:    
Ответить на тему

Текущее время: Сегодня 22:15

Часовой пояс: GMT + 7



Вы не можете начинать темы
Вы не можете отвечать на сообщения
Вы не можете редактировать свои сообщения
Вы не можете удалять свои сообщения
Вы не можете голосовать в опросах
Вы не можете прикреплять файлы к сообщениям
Вы можете скачивать файлы