Кентерберийские рассказы / I racconti di Canterbury (Пьер Паоло Пазолини / Pier Paolo Pasolini) [1972, Италия, Франция, трагикомедия, драма, эротика, HDRip] AVO (Юрий Сербин)

Ответить на тему
Статистика раздачи [Обновить пиров]
Размер:  1.47 GB   |    Зарегистрирован:  6 месяцев 4 дня   |    Скачан:  1 раз

Полного источника не было: 6 месяцев 3 дня

 
   
 
 
 
Автор Сообщение

torrentc.info

Создавать темы 07-Июн-2018 00:22

[Цитировать]

Кентерберийские рассказы / I racconti di Canterbury
Страна: Италия, Франция
Жанр: трагикомедия, драма, эротика
Год выхода: 1972
Продолжительность: 01:51:00
Перевод: Авторский (одноголосый закадровый) Юрий Сербин
Субтитры: нет
Режиссер: Пьер Паоло Пазолини / Pier Paolo Pasolini
В ролях: Пьер паоло Пазолини, Хью Гриффит, Алан Уэбб, Франко Читти, Вернон Добтчефф, Нинетто Даволи, Жозефина Чаплин, Дж.П. Ван Дайн, Адриан Стрит
Описание: Действие картины развивается в средневековой Англии на постоялом дворе. В этом фильме режиссер сыграл роль Несера, который является одним из слушателей четырех новелл, рассказанных путниками. Все новеллы картины пропитаны духом сладострастья и эротики, простотой нравов и юмором средневековой Англии. Объектами режиссерского внимания стали человеческие пороки и вожделения, а шокирующая зрителей сцена страшного суда, великолепно поставленная с масштабом и юмором, была высоко оценена критикой. Воплощенные на экране визуальные фантазии режиссера, его чувство стиля эпохи, праздничность красок, необычные костюмы, продуманное использование звукового ряда англосаксонских народных мелодий. В общем, Пазолини, как он есть...
Доп. информация: Выражаю огромную благодарность Нордеру за синхронизацию звуковой дорожки.
Сэмпл: http://multi-up.com/1200401
Качество видео: HDRip (Источник: Torrentc BDRip 720p)
Формат файла: AVI
Видео: XviD 73, 720x384, (1,85:1), 23,976 fps, 1696 Кбит/с, 8 бит, 0.26 bit/pixel
Аудио: Русский (АС3, 2 ch (Front: L R), 48,0 KHz, 192 Kbps)

MediaInfo

ОбщееПолное имя : H:\Фильмы на трекер\Кентерберийские рассказы (трагикомедия, драма, эротика 1972 год).aviФормат файла : AVIФормат файла/Информация : Audio Video InterleaveРазмер файла : 1,47 ГбайтПродолжительность : 1 ч. 51 м.Общий поток : 1897 Кбит/секПрограмма кодирования : VirtualDubMod 1.5.10.3 | www.virtualdub-fr.org || (build 2550/release)Библиотека кодирования : VirtualDubMod build 2550/release
ВидеоИдентификатор : 0Формат файла : MPEG-4 VisualПрофиль формата : Advanced Simple@L5Параметр BVOP формата : 2Параметр QPel формата : НетПараметр GMC формата : Без точки переходаПараметр матрицы формата : ВыборочнаяИдентификатор кодека : XVIDИдентификатор кодека/Подсказка : XviDПродолжительность : 1 ч. 51 м.Битрейт : 1696 Кбит/секШирина : 720 пикселейВысота : 384 пикселяСоотношение сторон : 1,85:1Частота кадров : 23,976 (23976/1000) кадра/секЦветовое пространство : YUVСубдискретизация насыщенности : 4:2:0Битовая глубина : 8 битТип развёртки : ПрогрессивнаяМетод сжатия : С потерямиБит/(Пиксели*Кадры) : 0.256Размер потока : 1,31 Гбайт (89%)Библиотека кодирования : XviD 73
АудиоИдентификатор : 1Формат файла : AC-3Формат файла/Информация : Audio Coding 3Расширение режима : CM (complete main)Параметр Endianness формата : BigИдентификатор кодека : 2000Продолжительность : 1 ч. 51 м.Вид битрейта : ПостоянныйБитрейт : 192 Кбит/секКаналы : 2 каналаРасположение каналов : Front: L RЧастота : 48,0 КГцЧастота кадров : 31,250 кадров/сек (1536 spf)Метод сжатия : С потерямиРазмер потока : 152 Мбайт (10%)Выравнивание : Разделение по промежуткамПродолжительность промежутка : 42 мс. (1,00 видеокадр)Время предзагрузки промежутка : 500 мс.

Скриншот c названием фильма

Скриншоты



[torrentc.info]_t_5570081.torrent
Торрент: Зарегистрирован ·  [ 2018-06-07 00:21 ] ·  012e4dc66c373a5ca79e4d12fb335cd5fd0cc482

15 KB

Статус: проверено
Скачан: 1 раз
Размер: 1.47 GB
Оценка: 
(Голосов: 0)
Сказали спасибо: 0  Спасибо
Похожие темы
[Профиль]    [ЛС]
Показать сообщения:    
Ответить на тему

Текущее время: Сегодня 09:29

Часовой пояс: GMT + 7



Вы не можете начинать темы
Вы не можете отвечать на сообщения
Вы не можете редактировать свои сообщения
Вы не можете удалять свои сообщения
Вы не можете голосовать в опросах
Вы не можете прикреплять файлы к сообщениям
Вы можете скачивать файлы