Похищение деревенщины инопланетянами / Пришельцы против деревенского быдла / Inbred Redneck Alien Abduction (Патрик Восс / Patrick Voss) [2004, США, Фантастика, комедия, трэш, DVDRip] VO (В. Котов)

Ответить на тему
Статистика раздачи [Обновить пиров]
Размер:  719 MB   |    Зарегистрирован:  6 месяцев 18 дней   |    Скачан:  0 раз

Полного источника не было: Никогда

 
   
 
 
 
Автор Сообщение

torrentc.info

Создавать темы 30-Май-2018 11:40

[Цитировать]

Похищение деревенщины инопланетянами / Пришельцы против деревенского быдла / Inbred Redneck Alien Abduction
Страна: США
Жанр: Фантастика, комедия, трэш
Год выхода: 2004
Продолжительность: 01:30:01
Перевод: Одноголосый закадровый В. Котов
Субтитры: нет
Оригинальная аудиодорожка: нет
Режиссер: Патрик Восс / Patrick Voss
В ролях: Итан Блум, Чад Бокхолдт, Джереми Коррэй, Джанет ДеПатти, Донна Донахью, Мишель Эллер, Адам Хэкбарт, Таня Брэнди Хаттер...
Описание: Пришельцы на свою беду похищают нескольких простаков из арканзасской глубинки. Они сильно пожалеют о содеянном и всячески стараются от них отделаться. Ну а зритель - о потраченном на просмотр времени. Приведу типичное [url=viewtopic.php?p=36268598#36268598]высказывание[/url]. "Фильм - полное дерьмо, дура,что смотрела среди ночи. В отличие от многих, кто скачал, я посмотрела скрипя сердце целиком - уж лучше бы перемотала, как и остальные. Друг, не оставляй себе надежду, что может быть понравиться, я крепилась из-за этой надежды и она меня подвела. Выбор за тобой..."
Доп. информация: Изначально переведён для сайта хорорьвидеошит, но потом [url=viewtopic.php?p=66699400#66699400]крысята[/url] слили его в свободный доступ...
Сэмпл: http://sendfile.su/1422398
Качество видео: DVDRip
Формат файла: AVI
Видео: 512x384 (4:3), 29.970 fps, 976 kbps avg, 0.166 bit/pixel
Аудио: 48 kHz, MPEG Layer 3, 2 ch, 128.00 kbps avg

MediaInfo

GeneralComplete name : D:\Inbred Redneck Alien Abduction (2004) DVDRip by sleazoid.aviFormat : AVIFormat/Info : Audio Video InterleaveFile size : 719 MiBDuration : 1 h 30 minOverall bit rate : 1 116 kb/sWriting application : VirtualDubMod 1.5.10.3 | www.virtualdub-fr.org || (build 2550/release)Writing library : VirtualDubMod build 2550/release
VideoID : 0Format : MPEG-4 VisualFormat profile : Advanced Simple@L5Format settings, BVOP : 2Format settings, QPel : NoFormat settings, GMC : No warppointsFormat settings, Matrix : Default (H.263)Muxing mode : Packed bitstreamCodec ID : XVIDCodec ID/Hint : XviDDuration : 1 h 30 minBit rate : 976 kb/sWidth : 512 pixelsHeight : 384 pixelsDisplay aspect ratio : 4:3Frame rate : 29.970 (30000/1001) FPSColor space : YUVChroma subsampling : 4:2:0Bit depth : 8 bitsScan type : ProgressiveCompression mode : LossyBits/(Pixel*Frame) : 0.166Stream size : 629 MiB (87%)Writing library : XviD 1.1.0 Beta2 (UTC 2005-04-04)
AudioID : 1Format : MPEG AudioFormat version : Version 1Format profile : Layer 3Codec ID : 55Codec ID/Hint : MP3Duration : 1 h 30 minBit rate mode : ConstantBit rate : 128 kb/sChannel(s) : 2 channelsSampling rate : 48.0 kHzCompression mode : LossyStream size : 82.4 MiB (11%)Alignment : Aligned on interleavesInterleave, duration : 33 ms (1.00 video frame)Interleave, preload duratio : 504 msWriting library : LAME3.99rEncoding settings : -m s -V 4 -q 2 -lowpass 17 -b 128

Скриншот c названием фильма

[img]https://b.radikal.ru/b18/1805/1b/4a5dbb17cbabt.jpg[/img]
NETDTHC писал(а):60035827Имел глупость давно как-то посмотреть этот бред. Все время хотелось остановить воспроизведение и включить шреддер. Это такой дибилизм, что смотреть противно. Полное отсутствие вкуса. По сравнению с ним, тупые американские комедии - шедевры кинематографа. Американцы уже давно не знают, что снимать а, учитывая интерес к теме НЛО, они и сняли эту бредятину; блевотина, одним словом. Не видел более тупого и более идиотского фильма на эту тему. Если это вообще можно назвать фильмом.


[torrentc.info]_t_5568260.torrent
Торрент: Зарегистрирован ·  [ 2018-05-30 11:40 ] ·  4275888f1a956c7e6a803311cc4b4691f0242b58

15 KB

Статус: проверено
Скачан: 0 раз
Размер: 719 MB
Оценка: 
(Голосов: 0)
Сказали спасибо: 0  Спасибо
Похожие темы
[Профиль]    [ЛС]
Показать сообщения:    
Ответить на тему

Текущее время: Сегодня 15:11

Часовой пояс: GMT + 7



Вы не можете начинать темы
Вы не можете отвечать на сообщения
Вы не можете редактировать свои сообщения
Вы не можете удалять свои сообщения
Вы не можете голосовать в опросах
Вы не можете прикреплять файлы к сообщениям
Вы можете скачивать файлы