[SACD-R][OF] Blood, Sweat & Tears - Child Is Father To The Man ("Bloodlines" Box Set) - 1968/2017 (Rock, Fusion)

Ответить на тему
Статистика раздачи [Обновить пиров]
Размер:  3.18 GB   |    Зарегистрирован:  3 месяца 24 дня   |    Скачан:  0 раз

Полного источника не было: Никогда

 
   
 
 
 
Автор Сообщение

torrentc.info

Создавать темы 29-Май-2018 23:10

[Цитировать]

Blood, Sweat & Tears / Child Is Father To The Man
("Bloodlines" Box Set)
- Формат файла записи/Источник записи: [SACD-R][OF]
Наличие водяных знаков: Нет
Год издания/переиздания диска: 1968/2017
Жанр: Rock, Fusion
Издатель (лейбл): Columbia / Sony / Analogue Productions
Продолжительность: 00:49:26
Наличие сканов в содержимом раздачи: Да (сканы)-Треклист:
1. Overture 01:32
2. I Love You More Than You’ll Ever Know 05:57
3. Morning Glory 04:16
4. My Days Are Numbered 03:19
5. Without Her 02:41
6. Just One Smile 04:39
7. I Can’t Quit Her 03:38
8. Meagan’s Gypsy Eyes 03:24
9. Somethin’ Goin’ On 08:00
10. House In The Country 03:05
11. The Modern Adventures Of Plato, Diogenes And Freud 04:12
12. So Much Love / Underture 04:43-Формат файла: ISO (*.iso)
Тип рипа: image
Разрядность: 64(2,8 MHz/1 Bit)
Формат файла: DST64
Количество каналов: 5.0, 2.0-Доп. информация: Released February 21, 1968
Recorded November 11 – December 20, 1967
Producer John Simon
Analogue Productions CAPP 085 SA
The ISO image is created using sacd-ripper for PS3 version 0.21.
Источник (релизер): pssacd (PS³SACD)
https://www.amazon.com/Bloodlines-SACD-Sweat-Tears-Blood/dp/B06XRRBX13

Лог DR

foobar2000 1.3.13 / Замер динамического диапазона (DR) 1.1.1Дата отчёта: 2018-05-26 12:02:40
--------------------------------------------------------------------------------Анализ: Blood, Sweat, & Tears / Child Is Father To The Man--------------------------------------------------------------------------------
DR Пики RMS Продолжительность трека--------------------------------------------------------------------------------DR13 -5.41 дБ -24.60 дБ 1:34 01-OvertureDR16 0.00 дБ -22.00 дБ 5:51 02-I Love You More Than You'll Ever KnowDR15 0.00 дБ -20.57 дБ 4:16 03-Morning GloryDR14 0.00 дБ -20.02 дБ 3:16 04-My Days Are NumberedDR14 0.00 дБ -20.33 дБ 2:40 05-Without HerDR15 0.00 дБ -21.26 дБ 4:31 06-Just One SmileDR15 0.00 дБ -20.51 дБ 3:38 07-I Can't Quit HerDR15 0.00 дБ -21.62 дБ 3:23 08-Meagan's Gypsy EyesDR16 0.00 дБ -21.11 дБ 8:02 09-Somethin' Goin' OnDR16 0.00 дБ -21.28 дБ 3:03 10-House In The CountryDR13 -0.68 дБ -22.01 дБ 4:16 11-The Modern Adventures Of Plato, Diogenes And FreudDR14 0.00 дБ -20.35 дБ 4:57 12-So Much Love / Underture--------------------------------------------------------------------------------
Количество треков: 12Реальные значения DR: DR15
Частота: 2822400 Гц / Частота PCM: 352800 ГцКаналов: 6Разрядность: 24Битрейт: 16934 кбит/сКодек: DST64================================================================================
--------------------------------------------------------------------------------Анализ: Blood, Sweat, & Tears / Child Is Father To The Man--------------------------------------------------------------------------------
DR Пики RMS Продолжительность трека--------------------------------------------------------------------------------DR12 -4.15 дБ -21.16 дБ 1:32 01-OvertureDR12 -5.01 дБ -20.05 дБ 5:57 02-I Love You More Than You'll Ever KnowDR12 -5.39 дБ -20.30 дБ 4:16 03-Morning GloryDR11 -5.41 дБ -18.16 дБ 3:19 04-My Days Are NumberedDR13 -5.17 дБ -21.58 дБ 2:41 05-Without HerDR11 -4.88 дБ -18.77 дБ 4:39 06-Just One SmileDR12 -4.79 дБ -20.00 дБ 3:38 07-I Can't Quit HerDR12 -6.34 дБ -21.12 дБ 3:24 08-Meagan's Gypsy EyesDR13 -5.00 дБ -20.47 дБ 8:00 09-Somethin' Goin' OnDR12 -5.87 дБ -21.05 дБ 3:05 10-House In The CountryDR12 -7.70 дБ -22.38 дБ 4:12 11-The Modern Adventures Of Plato, Diogenes And FreudDR12 -6.01 дБ -20.60 дБ 4:43 12-So Much Love / Underture--------------------------------------------------------------------------------
Количество треков: 12Реальные значения DR: DR12
Частота: 2822400 Гц / Частота PCM: 352800 ГцКаналов: 2Разрядность: 24Битрейт: 5645 кбит/сКодек: DST64================================================================================

Об альбоме (сборнике)

Child Is Father to the Man is the debut album by Blood, Sweat & Tears, released in February 1968. It reached number 47 on Billboard’s (North America) Pop Albums chart.
All Music Review
Child Is Father to the Man is keyboard player/singer/arranger Al Kooper’s finest work, an album on which he moves the folk-blues-rock amalgamation of the Blues Project into even wider pastures, taking in classical and jazz elements (including strings and horns), all without losing the pop essence that makes the hybrid work. This is one of the great albums of the eclectic post-Sgt. Pepper era of the late ’60s, a time when you could borrow styles from Greenwich Village contemporary folk to San Francisco acid rock and mix them into what seemed to have the potential to become a new American musical form. It’s Kooper’s bluesy songs, such as “I Love You More Than You’ll Ever Know” and “I Can’t Quit Her,” and his singing that are the primary focus, but the album is an aural delight; listen to the way the bass guitar interacts with the horns on “My Days Are Numbered” or the charming arrangement and Steve Katz’s vocal on Tim Buckley’s “Morning Glory.” Then Kooper sings Harry Nilsson’s “Without Her” over a delicate, jazzy backing with flügelhorn/alto saxophone interplay by Randy Brecker and Fred Lipsius. This is the sound of a group of virtuosos enjoying itself in the newly open possibilities of pop music. Maybe it couldn’t have lasted; anyway, it didn’t.
"Bloodlines" Box 4SACD Set:
Blood, Sweat & Tears (1968)
3 (1970)
B, S & T, 4 (1971)


[torrentc.info]_t_5566731.torrent
Торрент: Зарегистрирован ·  [ 2018-05-29 23:09 ] ·  d0214a09f0febe92a21ff1c8b3ab29c332ca5edb

33 KB

Статус: проверено
Скачан: 0 раз
Размер: 3.18 GB
Оценка: 
(Голосов: 0)
Сказали спасибо: 0  Спасибо
Похожие темы
[Профиль]    [ЛС]
Показать сообщения:    
Ответить на тему

Текущее время: Сегодня 18:17

Часовой пояс: GMT + 7



Вы не можете начинать темы
Вы не можете отвечать на сообщения
Вы не можете редактировать свои сообщения
Вы не можете удалять свои сообщения
Вы не можете голосовать в опросах
Вы не можете прикреплять файлы к сообщениям
Вы можете скачивать файлы