Искатели приключений / Les aventuriers (Робер Энрико / Robert Enrico) [1967, Франция, Италия, драма, приключения, BDRip] [Remastered / Ремастированная версия] AVO (Андрей Гаврилов)

Ответить на тему
Статистика раздачи [Обновить пиров]
Размер:  1.47 GB   |    Зарегистрирован:  5 месяцев 26 дней   |    Скачан:  0 раз
DL-List: Нет

Полного источника не было: Никогда

 
   
 
 
 
Автор Сообщение

torrentc.info

Создавать темы 21-Май-2018 23:14

[Цитировать]

Искатели приключений / Les aventuriers
Страна: Франция, Италия
Жанр: драма, приключения
Год выхода: 1967
Продолжительность: 01:53:24
Перевод: Авторский (одноголосый закадровый) Андрей Гаврилов
Субтитры: нет
Режиссер: Робер Энрико / Robert Enrico
В ролях: Ален Делон, Лино Вентура, Джоанна Шимкус, Серж Реджани, Ганс Мейер, Жан Дарье, Жан Троньон, Одиль Пуассон, Ирен Тунк
Описание: Троицу отважных парижан одолевают сумасбродные мечты. Пролететь на самолете под Триумфальной аркой, например. Но даже такие устремления не останавливают их перед возможностью еще более рискованных приключений. Они отправляются к берегам Конго за …сокровищами. Но там их ждет роковое столкновение…

Сэмпл: http://multi-up.com/1198916
Качество видео: BDRip (Источник: Torrentc Les.Aventuriers.1967.Remastered.BDRemux.1080p.Films.club)
Формат файла: AVI
Видео: XviD, 720x304, (2,35:1), 24,000 fps, 1621 Кбит/с, 8 бит, 0.30 bit/pixel
Аудио: Русский (АС3, 2 ch (Front: L R), 48,0 KHz, 224 Kbps)

MediaInfo

ОбщееПолное имя : H:\Фильмы на трекер\Искатели приключений (драма, приключения 1967 год).aviФормат файла : AVIФормат файла/Информация : Audio Video InterleaveРазмер файла : 1,47 ГбайтПродолжительность : 1 ч. 53 м.Общий поток : 1855 Кбит/секПрограмма кодирования : VirtualDubMod 1.5.10.2 (build 2540/release)Библиотека кодирования : VirtualDubMod build 2540/release
ВидеоИдентификатор : 0Формат файла : MPEG-4 VisualПрофиль формата : Advanced Simple@L5Параметр BVOP формата : 2Параметр QPel формата : НетПараметр GMC формата : Без точки переходаПараметр матрицы формата : ВыборочнаяИдентификатор кодека : XVIDИдентификатор кодека/Подсказка : XviDПродолжительность : 1 ч. 53 м.Битрейт : 1621 Кбит/секШирина : 720 пикселейВысота : 304 пикселяСоотношение сторон : 2,35:1Частота кадров : 24,000 кадра/секЦветовое пространство : YUVСубдискретизация насыщенности : 4:2:0Битовая глубина : 8 битТип развёртки : ПрогрессивнаяМетод сжатия : С потерямиБит/(Пиксели*Кадры) : 0.309Размер потока : 1,28 Гбайт (87%)Библиотека кодирования : XviD 73
АудиоИдентификатор : 1Формат файла : AC-3Формат файла/Информация : Audio Coding 3Расширение режима : CM (complete main)Параметр Endianness формата : BigИдентификатор кодека : 2000Продолжительность : 1 ч. 53 м.Вид битрейта : ПостоянныйБитрейт : 224 Кбит/секКаналы : 2 каналаРасположение каналов : Front: L RЧастота : 48,0 КГцЧастота кадров : 31,250 кадров/сек (1536 spf)Метод сжатия : С потерямиРазмер потока : 182 Мбайт (12%)Выравнивание : Разделение по промежуткамПродолжительность промежутка : 42 мс. (1,00 видеокадр)Время предзагрузки промежутка : 500 мс.

Скриншот c названием фильма

Скриншоты



[torrentc.info]_t_5564532.torrent
Торрент: Зарегистрирован ·  [ 2018-05-21 23:14 ] ·  6b855a1b3db77d721377749c099665f1538e3c3b

15 KB

Статус: проверено
Скачан: 0 раз
Размер: 1.47 GB
Оценка: 
(Голосов: 0)
Сказали спасибо: 0  Спасибо
Похожие темы
[Профиль]    [ЛС]
Показать сообщения:    
Ответить на тему

Текущее время: Сегодня 03:15

Часовой пояс: GMT + 7



Вы не можете начинать темы
Вы не можете отвечать на сообщения
Вы не можете редактировать свои сообщения
Вы не можете удалять свои сообщения
Вы не можете голосовать в опросах
Вы не можете прикреплять файлы к сообщениям
Вы можете скачивать файлы