Ritchie Blackmore’s Rainbow - Memories in Rock II [2018, Rock, DVD5]

Ответить на тему
Статистика раздачи [Обновить пиров]
Размер:  3.66 GB   |    Зарегистрирован:  5 месяцев 26 дней   |    Скачан:  0 раз

Полного источника не было: Никогда

 
   
 
 
 
Автор Сообщение

torrentc.info

Создавать темы 20-Май-2018 22:57

[Цитировать]

Ritchie Blackmore’s Rainbow / Memories in Rock II
Страна: UK
Жанр: Rock
Продолжительность: 01:29:14
Год выхода: 2018
Лейбл: MHM GEMA D|18313-01
Треклист:
1. Ritchie Blackmore Interview
2. Ronnie Romero Interview
3. Jens Johansson Interview
4. Bob Nouveau Interview
5. David Keith Interview
6. Candice Night Interview
7. Lady Lynn Interview
8. Dave David Interview
9. Andreas Bock Interview
10. Michael Bockmuhl Interview
11. Bonus Clip
12. I Surrender 2017 Backstage Clip
Разбивка на главы по трекам: есть
Качество : DVD5
Формат файла: DVD video
Видео кодек: MPEG2
Аудио кодек: AC3
Видео: NTSC 16x9 (720x480) 29.97 к/с
Аудио: AC-3 48кГц

MediaInfo

ОбщееПолное имя : E:\МУЗЫКА\Ritchie Blackmore’s Rainbow - Memories in Rock II DVD\VIDEO_TS\VIDEO_TS.BUPФормат файла : DVD VideoПрофиль формата : MenuРазмер файла : 12,0 КбайтРежим общего битрейта : ПеременныйFileExtension_Invalid : ifo
ВидеоИдентификатор : 224 (0xE0)Формат файла : MPEG VideoВерсия формата : Version 2Вид битрейта : ПеременныйШирина : 720 пикселейВысота : 480 пикселейСоотношение сторон : 16:9Частота кадров : 29,970 (29970/1000) кадров/секСтандарт вещания : NTSCМетод сжатия : С потерями
АудиоФормат файла : AC-3Формат файла/Информация : Audio Coding 3Каналы : 2 каналаЧастота : 48,0 КГцМетод сжатия : С потерями
ТекстФормат файла : RLEФормат файла/Информация : Run-length encodingБитовая глубина : 2 бит
ОбщееПолное имя : E:\МУЗЫКА\Ritchie Blackmore’s Rainbow - Memories in Rock II DVD\VIDEO_TS\VIDEO_TS.IFOФормат файла : DVD VideoПрофиль формата : MenuРазмер файла : 12,0 КбайтРежим общего битрейта : Переменный
ВидеоИдентификатор : 224 (0xE0)Формат файла : MPEG VideoВерсия формата : Version 2Вид битрейта : ПеременныйШирина : 720 пикселейВысота : 480 пикселейСоотношение сторон : 16:9Частота кадров : 29,970 (29970/1000) кадров/секСтандарт вещания : NTSCМетод сжатия : С потерями
АудиоФормат файла : AC-3Формат файла/Информация : Audio Coding 3Каналы : 2 каналаЧастота : 48,0 КГцМетод сжатия : С потерями
ТекстФормат файла : RLEФормат файла/Информация : Run-length encodingБитовая глубина : 2 бит
ОбщееПолное имя : E:\МУЗЫКА\Ritchie Blackmore’s Rainbow - Memories in Rock II DVD\VIDEO_TS\VIDEO_TS.VOBФормат файла : MPEG-PSРазмер файла : 31,6 МбайтПродолжительность : 31 с. 665 мс.Общий поток : 8359 Кбит/секБиблиотека кодирования : encoded by TMPGEnc Video Mastering Works 6 Version. 6.2.4.31
ВидеоИдентификатор : 224 (0xE0)Формат файла : MPEG VideoВерсия формата : Version 2Профиль формата : Main@MainНастройки формата : CustomMatrix / BVOPПараметр BVOP формата : ДаПараметр матрицы формата : ВыборочнаяПараметр GOP формата : M=3, N=18Структура изображения : FrameПродолжительность : 31 с. 665 мс.Вид битрейта : ПостоянныйБитрейт : 8000 Кбит/секШирина : 720 пикселейВысота : 480 пикселейСоотношение сторон : 16:9Частота кадров : 29,970 (30000/1001) кадров/секСтандарт вещания : NTSCЦветовое пространство : YUVСубдискретизация насыщенности : 4:2:0Битовая глубина : 8 битТип развёртки : ЧересстрочнаяПорядок развёртки : Верхнее поле первоеМетод сжатия : С потерямиБит/(Пиксели*Кадры) : 0.772Временной код первого кадра : 00:00:00:00Оригинал временного кода : Group of pictures headerРазмер потока : 30,1 Мбайт (95%)Библиотека кодирования : TMPGEnc Video Mastering Works 6 Version. 6.2.4.31Основные цвета : BT.601 NTSCХарактеристики трансфера : BT.601Коэффициенты матрицы : BT.601
АудиоИдентификатор : 189 (0xBD)-128 (0x80)Формат файла : AC-3Формат файла/Информация : Audio Coding 3Режим смешивания : DVD-VideoПродолжительность : 31 с. 648 мс.Вид битрейта : ПостоянныйБитрейт : 224 Кбит/секКаналы : 2 каналаРасположение каналов : Front: L RЧастота : 48,0 КГцЧастота кадров : 31,250 кадров/сек (1536 SPF)Битовая глубина : 16 битМетод сжатия : С потерямиРазмер потока : 865 Кбайт (3%)ServiceKind/String : Complete Main
Текст #1Идентификатор : 189 (0xBD)-32 (0x20)Формат файла : RLEФормат файла/Информация : Run-length encodingРежим смешивания : DVD-Video
Текст #2Идентификатор : 189 (0xBD)-33 (0x21)Формат файла : RLEФормат файла/Информация : Run-length encodingРежим смешивания : DVD-Video
Меню
ОбщееПолное имя : E:\МУЗЫКА\Ritchie Blackmore’s Rainbow - Memories in Rock II DVD\VIDEO_TS\VTS_01_0.BUPФормат файла : DVD VideoПрофиль формата : ProgramРазмер файла : 14,0 КбайтПродолжительность : 12 с. 0 мс.Режим общего битрейта : ПеременныйОбщий поток : 9557 бит/секFileExtension_Invalid : ifo
ВидеоИдентификатор : 224 (0xE0)Формат файла : MPEG VideoВерсия формата : Version 2Продолжительность : 12 с. 12 мс.Вид битрейта : ПеременныйШирина : 720 пикселейВысота : 480 пикселейСоотношение сторон : 16:9Частота кадров : 29,970 (29970/1000) кадров/секСтандарт вещания : NTSCМетод сжатия : С потерями
АудиоИдентификатор : 128 (0x80)Формат файла : AC-3Формат файла/Информация : Audio Coding 3Продолжительность : 12 с. 0 мс.Каналы : 2 каналаЧастота : 48,0 КГцМетод сжатия : С потерями
МенюПродолжительность : 12 с. 0 мс.00:00:00.000 : Chapter 100:00:05.966 : Chapter 2List (Audio) : 0
ОбщееПолное имя : E:\МУЗЫКА\Ritchie Blackmore’s Rainbow - Memories in Rock II DVD\VIDEO_TS\VTS_01_0.IFOФормат файла : DVD VideoПрофиль формата : ProgramРазмер файла : 14,0 КбайтПродолжительность : 12 с. 0 мс.Режим общего битрейта : ПеременныйОбщий поток : 9557 бит/сек
ВидеоИдентификатор : 224 (0xE0)Формат файла : MPEG VideoВерсия формата : Version 2Продолжительность : 12 с. 12 мс.Вид битрейта : ПеременныйШирина : 720 пикселейВысота : 480 пикселейСоотношение сторон : 16:9Частота кадров : 29,970 (29970/1000) кадров/секСтандарт вещания : NTSCМетод сжатия : С потерями
АудиоИдентификатор : 128 (0x80)Формат файла : AC-3Формат файла/Информация : Audio Coding 3Продолжительность : 12 с. 0 мс.Каналы : 2 каналаЧастота : 48,0 КГцМетод сжатия : С потерями
МенюПродолжительность : 12 с. 0 мс.00:00:00.000 : Chapter 100:00:05.966 : Chapter 2List (Audio) : 0
ОбщееПолное имя : E:\МУЗЫКА\Ritchie Blackmore’s Rainbow - Memories in Rock II DVD\VIDEO_TS\VTS_01_1.VOBФормат файла : MPEG-PSРазмер файла : 5,36 МбайтПродолжительность : 6 с. 65 мс.Режим общего битрейта : ПеременныйОбщий поток : 7418 Кбит/секБиблиотека кодирования : encoded by TMPGEnc 4.0 XPress Version. 4.7.7.307
ВидеоИдентификатор : 224 (0xE0)Формат файла : MPEG VideoВерсия формата : Version 2Профиль формата : Main@MainНастройки формата : CustomMatrix / BVOPПараметр BVOP формата : ДаПараметр матрицы формата : ВыборочнаяПараметр GOP формата : M=3, N=16Продолжительность : 6 с. 65 мс.Вид битрейта : ПеременныйБитрейт : 7046 Кбит/секМаксимальный битрейт : 7500 Кбит/секШирина : 720 пикселейВысота : 480 пикселейСоотношение сторон : 16:9Частота кадров : 29,970 (30000/1001) кадров/секСтандарт вещания : NTSCЦветовое пространство : YUVСубдискретизация насыщенности : 4:2:0Битовая глубина : 8 битТип развёртки : ПрогрессивнаяМетод сжатия : С потерямиБит/(Пиксели*Кадры) : 0.680Временной код первого кадра : 00:00:00:00Оригинал временного кода : Group of pictures headerGOP, открыто/закрыто : ЗакрытоРазмер потока : 5,10 Мбайт (95%)Библиотека кодирования : TMPGEnc XPress 4.7.7.307
АудиоИдентификатор : 189 (0xBD)-128 (0x80)Формат файла : AC-3Формат файла/Информация : Audio Coding 3Режим смешивания : DVD-VideoПродолжительность : 6 с. 21 мс.Вид битрейта : ПостоянныйБитрейт : 224 Кбит/секКаналы : 2 каналаРасположение каналов : Front: L RЧастота : 48,0 КГцЧастота кадров : 31,250 кадров/сек (1536 SPF)Битовая глубина : 16 битМетод сжатия : С потерямиРазмер потока : 165 Кбайт (3%)ServiceKind/String : Complete Main
Меню
ОбщееПолное имя : E:\МУЗЫКА\Ritchie Blackmore’s Rainbow - Memories in Rock II DVD\VIDEO_TS\VTS_02_0.BUPФормат файла : DVD VideoПрофиль формата : ProgramРазмер файла : 70,0 КбайтПродолжительность : 30 м. 33 с.Режим общего битрейта : ПеременныйОбщий поток : 313 бит/секFileExtension_Invalid : ifo
ВидеоИдентификатор : 224 (0xE0)Формат файла : MPEG VideoВерсия формата : Version 2Продолжительность : 30 м. 33 с.Вид битрейта : ПеременныйШирина : 720 пикселейВысота : 480 пикселейСоотношение сторон : 16:9Частота кадров : 29,970 (29970/1000) кадров/секСтандарт вещания : NTSCМетод сжатия : С потерями
АудиоИдентификатор : 128 (0x80)Формат файла : AC-3Формат файла/Информация : Audio Coding 3Продолжительность : 30 м. 33 с.Каналы : 2 каналаЧастота : 48,0 КГцМетод сжатия : С потерямиЯзык : English
Меню #1Продолжительность : 30 м. 33 с.00:00:00.000 : Chapter 100:30:33.266 : Chapter 2List (Audio) : 0
Меню #2Продолжительность : 10 м. 20 с.00:00:00.000 : Chapter 100:10:20.133 : Chapter 2List (Audio) : 0
Меню #3Продолжительность : 8 м. 38 с.00:00:00.000 : Chapter 100:08:37.800 : Chapter 2List (Audio) : 0
Меню #4Продолжительность : 3 м. 9 с.00:00:00.000 : Chapter 100:03:08.533 : Chapter 2List (Audio) : 0
Меню #5Продолжительность : 6 м. 9 с.00:00:00.000 : Chapter 100:06:09.266 : Chapter 2List (Audio) : 0
Меню #6Продолжительность : 7 м. 11 с.00:00:00.000 : Chapter 100:07:11.433 : Chapter 2List (Audio) : 0
Меню #7Продолжительность : 4 м. 1 с.00:00:00.000 : Chapter 100:04:01.300 : Chapter 2List (Audio) : 0
Меню #8Продолжительность : 1 м. 2 с.00:00:00.000 : Chapter 100:01:01.766 : Chapter 2List (Audio) : 0
Меню #9Продолжительность : 5 м. 4 с.00:00:00.000 : Chapter 100:05:03.766 : Chapter 2List (Audio) : 0
Меню #10Продолжительность : 3 м. 58 с.00:00:00.000 : Chapter 100:03:58.366 : Chapter 2List (Audio) : 0
Меню #11Продолжительность : 5 м. 3 с.00:00:00.000 : Chapter 100:05:02.733 : Chapter 2List (Audio) : 0
Меню #12Продолжительность : 4 м. 24 с.00:00:00.000 : Chapter 100:04:24.000 : Chapter 2List (Audio) : 0
ОбщееПолное имя : E:\МУЗЫКА\Ritchie Blackmore’s Rainbow - Memories in Rock II DVD\VIDEO_TS\VTS_02_0.IFOФормат файла : DVD VideoПрофиль формата : ProgramРазмер файла : 70,0 КбайтПродолжительность : 30 м. 33 с.Режим общего битрейта : ПеременныйОбщий поток : 313 бит/сек
ВидеоИдентификатор : 224 (0xE0)Формат файла : MPEG VideoВерсия формата : Version 2Продолжительность : 30 м. 33 с.Вид битрейта : ПеременныйШирина : 720 пикселейВысота : 480 пикселейСоотношение сторон : 16:9Частота кадров : 29,970 (29970/1000) кадров/секСтандарт вещания : NTSCМетод сжатия : С потерями
АудиоИдентификатор : 128 (0x80)Формат файла : AC-3Формат файла/Информация : Audio Coding 3Продолжительность : 30 м. 33 с.Каналы : 2 каналаЧастота : 48,0 КГцМетод сжатия : С потерямиЯзык : English
Меню #1Продолжительность : 30 м. 33 с.00:00:00.000 : Chapter 100:30:33.266 : Chapter 2List (Audio) : 0
Меню #2Продолжительность : 10 м. 20 с.00:00:00.000 : Chapter 100:10:20.133 : Chapter 2List (Audio) : 0
Меню #3Продолжительность : 8 м. 38 с.00:00:00.000 : Chapter 100:08:37.800 : Chapter 2List (Audio) : 0
Меню #4Продолжительность : 3 м. 9 с.00:00:00.000 : Chapter 100:03:08.533 : Chapter 2List (Audio) : 0
Меню #5Продолжительность : 6 м. 9 с.00:00:00.000 : Chapter 100:06:09.266 : Chapter 2List (Audio) : 0
Меню #6Продолжительность : 7 м. 11 с.00:00:00.000 : Chapter 100:07:11.433 : Chapter 2List (Audio) : 0
Меню #7Продолжительность : 4 м. 1 с.00:00:00.000 : Chapter 100:04:01.300 : Chapter 2List (Audio) : 0
Меню #8Продолжительность : 1 м. 2 с.00:00:00.000 : Chapter 100:01:01.766 : Chapter 2List (Audio) : 0
Меню #9Продолжительность : 5 м. 4 с.00:00:00.000 : Chapter 100:05:03.766 : Chapter 2List (Audio) : 0
Меню #10Продолжительность : 3 м. 58 с.00:00:00.000 : Chapter 100:03:58.366 : Chapter 2List (Audio) : 0
Меню #11Продолжительность : 5 м. 3 с.00:00:00.000 : Chapter 100:05:02.733 : Chapter 2List (Audio) : 0
Меню #12Продолжительность : 4 м. 24 с.00:00:00.000 : Chapter 100:04:24.000 : Chapter 2List (Audio) : 0
ОбщееПолное имя : E:\МУЗЫКА\Ritchie Blackmore’s Rainbow - Memories in Rock II DVD\VIDEO_TS\VTS_02_1.VOBФормат файла : MPEG-PSРазмер файла : 1024 МбайтПродолжительность : 24 м. 9 с.Режим общего битрейта : ПеременныйОбщий поток : 5925 Кбит/секБиблиотека кодирования : encoded by TMPGEnc Video Mastering Works 6 Version. 6.2.6.33
ВидеоИдентификатор : 224 (0xE0)Формат файла : MPEG VideoВерсия формата : Version 2Профиль формата : Main@MainНастройки формата : CustomMatrix / BVOPПараметр BVOP формата : ДаПараметр матрицы формата : ВыборочнаяПараметр GOP формата : M=3, N=18Структура изображения : FrameПродолжительность : 24 м. 9 с.Вид битрейта : ПеременныйБитрейт : 5583 Кбит/секМаксимальный битрейт : 8000 Кбит/секШирина : 720 пикселейВысота : 480 пикселейСоотношение сторон : 16:9Частота кадров : 29,970 (30000/1001) кадров/секСтандарт вещания : NTSCЦветовое пространство : YUVСубдискретизация насыщенности : 4:2:0Битовая глубина : 8 битТип развёртки : ЧересстрочнаяПорядок развёртки : Верхнее поле первоеМетод сжатия : С потерямиБит/(Пиксели*Кадры) : 0.539Временной код первого кадра : 00:00:00:00Оригинал временного кода : Group of pictures headerGOP, открыто/закрыто : ОткрытоGOP, открыто/закрыто на первом кадре : ЗакрытоРазмер потока : 965 Мбайт (94%)Библиотека кодирования : TMPGEnc Video Mastering Works 6 Version. 6.2.6.33Основные цвета : BT.601 NTSCХарактеристики трансфера : BT.601Коэффициенты матрицы : BT.601
АудиоИдентификатор : 189 (0xBD)-128 (0x80)Формат файла : AC-3Формат файла/Информация : Audio Coding 3Режим смешивания : DVD-VideoПродолжительность : 24 м. 9 с.Вид битрейта : ПостоянныйБитрейт : 224 Кбит/секКаналы : 2 каналаРасположение каналов : Front: L RЧастота : 48,0 КГцЧастота кадров : 31,250 кадров/сек (1536 SPF)Битовая глубина : 16 битМетод сжатия : С потерямиРазмер потока : 38,7 Мбайт (4%)ServiceKind/String : Complete Main
Меню
ОбщееПолное имя : E:\МУЗЫКА\Ritchie Blackmore’s Rainbow - Memories in Rock II DVD\VIDEO_TS\VTS_02_2.VOBФормат файла : MPEG-PSРазмер файла : 1024 МбайтРежим общего битрейта : Переменный
ВидеоИдентификатор : 224 (0xE0)Формат файла : MPEG VideoВерсия формата : Version 2Профиль формата : Main@MainНастройки формата : CustomMatrix / BVOPПараметр BVOP формата : ДаПараметр матрицы формата : ВыборочнаяПараметр GOP формата : M=3, N=18Структура изображения : FrameВид битрейта : ПеременныйМаксимальный битрейт : 8000 Кбит/секШирина : 720 пикселейВысота : 480 пикселейСоотношение сторон : 16:9Частота кадров : 29,970 (30000/1001) кадров/секСтандарт вещания : NTSCЦветовое пространство : YUVСубдискретизация насыщенности : 4:2:0Битовая глубина : 8 битТип развёртки : ЧересстрочнаяПорядок развёртки : Верхнее поле первоеМетод сжатия : С потерямиВременной код первого кадра : 00:24:07:24Оригинал временного кода : Group of pictures headerGOP, открыто/закрыто : ОткрытоОсновные цвета : BT.601 NTSCХарактеристики трансфера : BT.601Коэффициенты матрицы : BT.601
АудиоИдентификатор : 189 (0xBD)-128 (0x80)Формат файла : AC-3Формат файла/Информация : Audio Coding 3Режим смешивания : DVD-VideoВид битрейта : ПостоянныйБитрейт : 224 Кбит/секКаналы : 2 каналаРасположение каналов : Front: L RЧастота : 48,0 КГцЧастота кадров : 31,250 кадров/сек (1536 SPF)Битовая глубина : 16 битМетод сжатия : С потерямиЗадержка видео : -226 мс.ServiceKind/String : Complete Main
Меню
ОбщееПолное имя : E:\МУЗЫКА\Ritchie Blackmore’s Rainbow - Memories in Rock II DVD\VIDEO_TS\VTS_02_3.VOBФормат файла : MPEG-PSРазмер файла : 1024 МбайтРежим общего битрейта : Переменный
ВидеоИдентификатор : 224 (0xE0)Формат файла : MPEG VideoВерсия формата : Version 2Профиль формата : Main@MainНастройки формата : CustomMatrix / BVOPПараметр BVOP формата : ДаПараметр матрицы формата : ВыборочнаяПараметр GOP формата : M=3, N=18Структура изображения : FrameВид битрейта : ПеременныйМаксимальный битрейт : 8000 Кбит/секШирина : 720 пикселейВысота : 480 пикселейСоотношение сторон : 16:9Частота кадров : 29,970 (30000/1001) кадров/секСтандарт вещания : NTSCЦветовое пространство : YUVСубдискретизация насыщенности : 4:2:0Битовая глубина : 8 битТип развёртки : ЧересстрочнаяПорядок развёртки : Верхнее поле первоеМетод сжатия : С потерямиВременной код первого кадра : 00:08:22:25Оригинал временного кода : Group of pictures headerGOP, открыто/закрыто : ОткрытоОсновные цвета : BT.601 NTSCХарактеристики трансфера : BT.601Коэффициенты матрицы : BT.601
АудиоИдентификатор : 189 (0xBD)-128 (0x80)Формат файла : AC-3Формат файла/Информация : Audio Coding 3Режим смешивания : DVD-VideoВид битрейта : ПостоянныйБитрейт : 224 Кбит/секКаналы : 2 каналаРасположение каналов : Front: L RЧастота : 48,0 КГцЧастота кадров : 31,250 кадров/сек (1536 SPF)Битовая глубина : 16 битМетод сжатия : С потерямиЗадержка видео : -171 мс.ServiceKind/String : Complete Main
Меню
ОбщееПолное имя : E:\МУЗЫКА\Ritchie Blackmore’s Rainbow - Memories in Rock II DVD\VIDEO_TS\VTS_02_4.VOBФормат файла : MPEG-PSРазмер файла : 641 МбайтПродолжительность : 1 м. 18 с.Режим общего битрейта : ПеременныйОбщий поток : 68,1 Мбит/сек
ВидеоИдентификатор : 224 (0xE0)Формат файла : MPEG VideoВерсия формата : Version 2Профиль формата : Main@MainНастройки формата : CustomMatrix / BVOPПараметр BVOP формата : ДаПараметр матрицы формата : ВыборочнаяПараметр GOP формата : M=3, N=18Структура изображения : FrameПродолжительность : 1 м. 18 с.Вид битрейта : ПеременныйБитрейт : 66,5 Мбит/секМаксимальный битрейт : 8000 Кбит/секШирина : 720 пикселейВысота : 480 пикселейСоотношение сторон : 16:9Частота кадров : 29,970 (30000/1001) кадров/секСтандарт вещания : NTSCЦветовое пространство : YUVСубдискретизация насыщенности : 4:2:0Битовая глубина : 8 битТип развёртки : ЧересстрочнаяПорядок развёртки : Верхнее поле первоеМетод сжатия : С потерямиБит/(Пиксели*Кадры) : 6.424Временной код первого кадра : 00:03:05:07Оригинал временного кода : Group of pictures headerGOP, открыто/закрыто : ОткрытоРазмер потока : 626 Мбайт (98%)Основные цвета : BT.601 NTSCХарактеристики трансфера : BT.601Коэффициенты матрицы : BT.601
АудиоИдентификатор : 189 (0xBD)-128 (0x80)Формат файла : AC-3Формат файла/Информация : Audio Coding 3Режим смешивания : DVD-VideoПродолжительность : 1 м. 18 с.Вид битрейта : ПостоянныйБитрейт : 224 Кбит/секКаналы : 2 каналаРасположение каналов : Front: L RЧастота : 48,0 КГцЧастота кадров : 31,250 кадров/сек (1536 SPF)Битовая глубина : 16 битМетод сжатия : С потерямиЗадержка видео : -205 мс.Размер потока : 2,11 Мбайт (0%)ServiceKind/String : Complete Main
Меню

Скриншоты меню

Скриншоты





Audio CD здесь

[url=viewtopic.php?p=75307113#75307113]http://Torrentc/forum/viewtopic.php?p=75307113#75307113[/url]


[torrentc.info]_t_5558349.torrent
Торрент: Зарегистрирован ·  [ 2018-05-20 22:56 ] ·  39f9c5cbb3b5a71da31594663bb6a5e7c81bdf47

19 KB

Статус: проверено
Скачан: 0 раз
Размер: 3.66 GB
Оценка: 
(Голосов: 0)
Сказали спасибо: 0  Спасибо
Похожие темы
[Профиль]    [ЛС]
Показать сообщения:    
Ответить на тему

Текущее время: Сегодня 20:55

Часовой пояс: GMT + 7



Вы не можете начинать темы
Вы не можете отвечать на сообщения
Вы не можете редактировать свои сообщения
Вы не можете удалять свои сообщения
Вы не можете голосовать в опросах
Вы не можете прикреплять файлы к сообщениям
Вы можете скачивать файлы