Гром под солнцем / Thunder in the Sun (Расселл Раус / Russell Rouse) [1959, США, боевик, мелодрама, приключения, вестерн, история, TVRip] VO (Алексей Alassea Крюков) + Sub Rus (Антон Каптелов) + Original Eng

Ответить на тему
Статистика раздачи [Обновить пиров]
Размер:  793 MB   |    Зарегистрирован:  1 месяц 2 дня   |    Скачан:  0 раз

Полного источника не было: Никогда

 
   
 
 
 
Автор Сообщение

torrentc.info

Создавать темы 20-Май-2018 11:27

[Цитировать]

Гром под солнцем / Thunder in the Sun
Страна: США
Жанр: боевик, мелодрама, приключения, вестерн, история
Год выхода: 1959
Продолжительность: 01:17:20
Перевод: Одноголосый закадровый - Алексей Alassea Крюков
Субтитры: русские[На фр. фразы, Полные](Антон Каптелов)
Оригинальная аудиодорожка: английский
Режиссер: Расселл Раус / Russell Rouse
В ролях: Сьюзен Хэйуорд, Джефф Чандлер, Жак Бержерак, Бланш Юрка, Карл Эсмонд, Фортунио Бонанова, Бертран Кастелли, Феликс Лохер, Альберт Кэрриэр, Мишель Марли ...
Описание: Из Европы, разрушенной наполеоновскими войнами, небольшая группа французских басков решает отправиться в Америку. Здесь они пытаются найти свой новый дом и свою новую родину. За океаном им предстоит пережить немало опасных приключений: жару и жажду в пустыне, встречу с кровожадными индейцами, пожар в прерии. Только вера в себя и свое будущее помогает смельчакам справиться со всеми бедами и невзгодами.-- --Фильм переведен и озвучен специально для: 7букв Вестерн / группа Джесси Джеймса
Отдельная благодарность [url=profile.php?mode=viewprofile&u=40632995]Alassea[/url] за предоставленную русскую звуковую дорожку.
Перевод: Антон Каптелов.
Закадровый текст: Алексей Alassea Крюков.--Thunder in the Sun_(1959)_TVRip_Sample_.avi--Особая благодарность за рип и субтитры dimmm2v.--Качество видео: TVRip
Формат файла: AVI
Видео: 624x448 (1.39:1), 25 fps, XviD build 50 ~1167 kbps avg, 0.17 bit/pixel
Аудио 1: 48 kHz, MPEG Layer 3, 2 ch, ~128.00 kbps avg, Русский
Аудио 2: 48 kHz, MPEG Layer 3, 2 ch, ~128.00 kbps avg, Английский --- [Отдельно]
Формат файла субтитров: softsub (SRT)

AviInfo

File: Thunder in the Sun_(1959)_TVRip_.avi
Title: Thunder in the Sun (1959)
Author: Russell Rouse
Genre: Action, Adventure, History
Category: Movie
Comment: VO (Алексей Alassea Крюков)
FileSize: 721.86 Mb ( 756 922 368 bytes )
Play length: 01:17:20.560 (116014 frames)
Subtitles: c_RUS_[Only For French Phrases]_(Anton Kaptelov)_, RUS_[Full]_(Anton Kaptelov)_ (SubRip format)
Video: 624x448 (1.39:1), 25 fps, XviD build 50 ~1167 kbps avg, 0.17 bit/pixel
Audio: 48 kHz, MPEG Layer 3, 2 ch, ~128.00 kbps avg

MediaInfo

GeneralComplete name : I:\111\Thunder in the Sun_(1959)_TVRip_\Thunder in the Sun_(1959)_TVRip_.aviFormat : AVIFormat/Info : Audio Video InterleaveFile size : 722 MiBDuration : 1 h 17 minOverall bit rate : 1 305 kb/sMovie name : Thunder in the Sun (1959)Director : Russell RouseGenre : Action, Adventure, HistoryWriting application : VirtualDubMod 1.5.10.3 | www.virtualdub-fr.org || (build 2550/release)Original source form/Name : MovieComment : VO (Алексей Alassea Крюков)
VideoID : 0Format : MPEG-4 VisualFormat profile : Advanced Simple@L5Format settings, BVOP : 1Format settings, QPel : NoFormat settings, GMC : No warppointsFormat settings, Matrix : CustomCodec ID : XVIDCodec ID/Hint : XviDDuration : 1 h 17 minBit rate : 1 167 kb/sWidth : 624 pixelsHeight : 448 pixelsDisplay aspect ratio : 1.393Frame rate : 25.000 FPSColor space : YUVChroma subsampling : 4:2:0Bit depth : 8 bitsScan type : ProgressiveCompression mode : LossyBits/(Pixel*Frame) : 0.167Stream size : 646 MiB (89%)Writing library : XviD 1.2.1 (UTC 2008-12-04)
AudioID : 1Format : MPEG AudioFormat version : Version 1Format profile : Layer 3Codec ID : 55Codec ID/Hint : MP3Duration : 1 h 17 minBit rate mode : ConstantBit rate : 128 kb/sChannel(s) : 2 channelsSampling rate : 48.0 kHzCompression mode : LossyStream size : 70.8 MiB (10%)Alignment : Aligned on interleavesInterleave, duration : 40 ms (1.00 video frame)Interleave, preload duratio : 504 ms


[torrentc.info]_t_5563991.torrent
Торрент: Зарегистрирован ·  [ 2018-05-20 11:27 ] ·  40466e87ab4d9f413b9fae5193f0ed3afd03f61c

16 KB

Статус: проверено
Скачан: 0 раз
Размер: 793 MB
Оценка: 
(Голосов: 0)
Сказали спасибо: 0  Спасибо
Похожие темы
[Профиль]    [ЛС]
Показать сообщения:    
Ответить на тему

Текущее время: Сегодня 09:48

Часовой пояс: GMT + 7



Вы не можете начинать темы
Вы не можете отвечать на сообщения
Вы не можете редактировать свои сообщения
Вы не можете удалять свои сообщения
Вы не можете голосовать в опросах
Вы не можете прикреплять файлы к сообщениям
Вы можете скачивать файлы