(Progressive Rock/Pop/Art/Space Rock/Electronic) [WEB] John Beagley (Formativ) - Collection (2 Albums+2 Singles) - 2014-2018, FLAC (tracks), lossless

Ответить на тему
Статистика раздачи [Обновить пиров]
Размер:  834 MB   |    Зарегистрирован:  2 месяца 27 дней   |    Скачан:  0 раз

Полного источника не было: Никогда

 
   
 
 
 
Автор Сообщение

torrentc.info

Создавать темы 19-Май-2018 23:14

[Цитировать]

John Beagley


Collection
Жанр: Progressive Rock/Pop/Art/Space Rock/Electronic
Носитель: WEB
Год издания: 2014-2018
Страна исполнителя (группы): UK
Аудиокодек: FLAC (*.flac)
Тип рипа: tracks
Битрейт аудио: lossless
Продолжительность: 02:03:39
Источник (релизер): Bandcamp
Наличие сканов в содержимом раздачи: нет

2014 - Moving On From Here [57:47]


01. Keeping Up [00:05:08]
02. Loving You Forever [00:04:08]
03. My Space [00:06:52]
04. Love in Dead Places [00:05:05]
05. Silent Thought [00:06:01]
06. Moving On From Here [00:07:47]
07. You Say Yes I Say No [00:04:18]
08. All About Us [00:06:07]
09. Forgive You [00:04:18]
10. Safe Hands [00:07:59]
Released March 15, 2014

Лог проверки качества

-----------------------
DON'T MODIFY THIS FILE
-----------------------
PERFORMER: auCDtect Task Manager, ver. 1.6.0 RC1 build 1.6.0.1Copyright (c) 2008-2010 y-soft. All rights reservedhttp://y-soft.org
ANALYZER: auCDtect: CD records authenticity detector, version 0.8.2Copyright (c) 2004 Oleg Berngardt. All rights reserved.Copyright (c) 2004 Alexander Djourik. All rights reserved.
FILE: 10. Safe Hands.flac Size: 57607818 Hash: 7BA7DE19DB7B82A626E35772BF3B4D24 Accuracy: -m0 Conclusion: CDDA 100% Signature: 33E7F784434D62461C9F994EBF2C7F55860DF394FILE: 09. Forgive You.flac Size: 34850974 Hash: 03589676B0BF57CC29EB2B895CF7484E Accuracy: -m0 Conclusion: CDDA 100% Signature: 51337AEF426A8AFE2979BDB5794E233747C51E6FFILE: 08. All About Us.flac Size: 44738001 Hash: 8BE62F2EAB31C0E9D50C33BB41062EEF Accuracy: -m0 Conclusion: CDDA 100% Signature: 389AE28230B668A1DFEE271E92D4D48B49570293FILE: 07. You Say Yes I Say No.flac Size: 34540044 Hash: A195F9338C021506E4178BC72EACED03 Accuracy: -m0 Conclusion: CDDA 100% Signature: 48D8BF4F70D8175A54F01F23E2ECCD216ADC4855FILE: 06. Moving On From Here.flac Size: 57643795 Hash: 753137F3A9CF48125F0085C44216B03E Accuracy: -m0 Conclusion: CDDA 100% Signature: 127031891AAFC9CDF1784955691A6E6897D5DF94FILE: 05. Silent Thought.flac Size: 43747505 Hash: 13757B4A6E986FAB6F64E6C62EDD9D64 Accuracy: -m0 Conclusion: CDDA 100% Signature: 5D7575016E984A9A3001F20BBA871300A6F275ADFILE: 04. Love in Dead Places.flac Size: 37411427 Hash: 893C4986AA7D14391E4C2576E0E54D2D Accuracy: -m0 Conclusion: CDDA 100% Signature: F0B3219F229B18A82672840C11F512A0576B4667FILE: 03. My Space.flac Size: 50825691 Hash: AE58611C6EC5C0E29B63990091E41461 Accuracy: -m0 Conclusion: CDDA 100% Signature: 1B436A5D8FBB9B1CDCAA4BC0FF8E2077DF7F66D9FILE: 02. Loving You Forever.flac Size: 30236573 Hash: 5C503F63481C581F72FCD8AAE9DA759B Accuracy: -m0 Conclusion: CDDA 100% Signature: 3FEC61B345FA695D9FCBD1EC12B59AD6C9CA1675FILE: 01. Keeping Up.flac Size: 39530997 Hash: 14B8CDDE4B5A955975A0153D5A9B5B37 Accuracy: -m0 Conclusion: CDDA 100% Signature: DD1FB0D958B8A55DFC03DEAE0F7CD5AD3F9B6244

DRM log

foobar2000 1.3.12 / Dynamic Range Meter 1.1.1log date: 2018-05-13 16:18:01
--------------------------------------------------------------------------------Analyzed: John Beagley / Moving On From Here--------------------------------------------------------------------------------
DR Peak RMS Duration Track--------------------------------------------------------------------------------DR6 -0.30 dB -8.53 dB 5:08 01-Keeping UpDR6 -0.32 dB -8.25 dB 4:09 02-Loving You ForeverDR6 -0.26 dB -8.41 dB 6:53 03-My SpaceDR7 -0.38 dB -9.70 dB 5:05 04-Love in Dead PlacesDR6 -0.26 dB -8.48 dB 6:02 05-Silent ThoughtDR6 -0.41 dB -8.96 dB 7:47 06-Moving On From HereDR6 -0.32 dB -7.49 dB 4:18 07-You Say Yes I Say NoDR5 -0.43 dB -7.75 dB 6:07 08-All About UsDR6 -0.37 dB -7.77 dB 4:18 09-Forgive YouDR7 -0.31 dB -9.13 dB 8:00 10-Safe Hands--------------------------------------------------------------------------------
Number of tracks: 10Official DR value: DR6
Samplerate: 44100 HzChannels: 2Bits per sample: 16Bitrate: 959 kbpsCodec: FLAC================================================================================

2015 - Uncommunicated [54:12]


01. Chaos and Control [00:03:32]
02. Make It Happen [00:03:41]
03. Calling Out [00:06:12]
04. Ego [00:12:23]
05. Hologram (album mix) [00:05:12]
06. Uncommunicated [00:08:14]
07. Loves Got a Hold of Me Now [00:05:16]
08. Where Did I Go Wrong? [00:04:40]
09. Ain't Got Front 2015 [00:04:59]
Released December 5, 2015

Лог проверки качества

-----------------------
DON'T MODIFY THIS FILE
-----------------------
PERFORMER: auCDtect Task Manager, ver. 1.6.0 RC1 build 1.6.0.1Copyright (c) 2008-2010 y-soft. All rights reservedhttp://y-soft.org
ANALYZER: auCDtect: CD records authenticity detector, version 0.8.2Copyright (c) 2004 Oleg Berngardt. All rights reserved.Copyright (c) 2004 Alexander Djourik. All rights reserved.
FILE: 09. Ain't Got Front 2015.flac Size: 37257856 Hash: 54C423D684DA71F100D637791DB982AE Accuracy: -m0 Conclusion: CDDA 100% Signature: DCBAB827E99BD8DABD33ACB36036523525A8E455FILE: 08. Where Did I Go Wrong.flac Size: 27020548 Hash: 762AF89F4FCF2DB33157B5E20DFEE7EF Accuracy: -m0 Conclusion: CDDA 100% Signature: F8FC9234DF820632868D92E5F65131892485B137FILE: 07. Loves Got a Hold of Me Now.flac Size: 33971761 Hash: 2CAE8349673847226EA3A14D3B993777 Accuracy: -m0 Conclusion: CDDA 100% Signature: 75318107FDE6F254F4CD51C910D200D4F1D0A2F8FILE: 06. Uncommunicated.flac Size: 51474530 Hash: 58A6C9D269D1046F53929051C44F6D23 Accuracy: -m0 Conclusion: CDDA 100% Signature: 4EFFDD6B1417E25D9A8FBBF9066C28E6CF4D9FF3FILE: 05. Hologram (album mix).flac Size: 35301868 Hash: AD4539389C4074982B9E9B8B72BF53DB Accuracy: -m0 Conclusion: CDDA 100% Signature: 8B1B7E7D4C791BBD34220DE1C768E9D6C0ACCC5BFILE: 04. Ego.flac Size: 89301415 Hash: 75DFAF5DC00C476A4A46FBFB4C99B984 Accuracy: -m0 Conclusion: CDDA 100% Signature: C35B499945C48D08904FD7B4105436CF84849A3DFILE: 03. Calling Out.flac Size: 40086729 Hash: 1C99297318FC92442292972ABC11A388 Accuracy: -m0 Conclusion: CDDA 100% Signature: C86BB56C7A1A19E26360877EF12020A8B1A170B0FILE: 02. Make It Happen.flac Size: 27352867 Hash: 63B606F2E6A308A0F70A488FF925E3FC Accuracy: -m0 Conclusion: CDDA 100% Signature: C8432AB9927FF690FD6D62D21C9AAFD514DB4E55FILE: 01. Chaos and Control.flac Size: 27037664 Hash: AF37755A8F1429B20A0CB92D8A98A7BA Accuracy: -m0 Conclusion: CDDA 100% Signature: 9CEF6AC4B63B9D60900F4567CBB945219E6B31F0

DRM log

foobar2000 1.3.12 / Dynamic Range Meter 1.1.1log date: 2018-05-13 16:09:49
--------------------------------------------------------------------------------Analyzed: John Beagley / Uncommunicated--------------------------------------------------------------------------------
DR Peak RMS Duration Track--------------------------------------------------------------------------------DR8 -0.09 dB -9.63 dB 3:33 01-Chaos and ControlDR6 -0.09 dB -9.07 dB 3:41 02-Make It HappenDR8 -0.09 dB -10.96 dB 6:12 03-Calling OutDR6 -0.09 dB -9.50 dB 12:23 04-EgoDR6 -0.09 dB -10.31 dB 5:13 05-Hologram (album mix)DR7 -0.09 dB -10.04 dB 8:14 06-UncommunicatedDR8 -0.09 dB -10.89 dB 5:16 07-Loves Got a Hold of Me NowDR9 -0.10 dB -13.22 dB 4:41 08-Where Did I Go Wrong?DR6 -0.09 dB -8.62 dB 5:00 09-Ain't Got Front 2015--------------------------------------------------------------------------------
Number of tracks: 9Official DR value: DR7
Samplerate: 44100 HzChannels: 2Bits per sample: 16Bitrate: 994 kbpsCodec: FLAC================================================================================

2016 - San Jacinto (Single) [06:17]


00. San Jacinto [00:06:17]
Written by Peter Gabriel.
Arranged, produced and performed by John Beagley.
Released June 14, 2016

Лог проверки качества

-----------------------
DON'T MODIFY THIS FILE
-----------------------
PERFORMER: auCDtect Task Manager, ver. 1.6.0 RC1 build 1.6.0.1Copyright (c) 2008-2010 y-soft. All rights reservedhttp://y-soft.org
ANALYZER: auCDtect: CD records authenticity detector, version 0.8.2Copyright (c) 2004 Oleg Berngardt. All rights reserved.Copyright (c) 2004 Alexander Djourik. All rights reserved.
FILE: San Jacinto.flac Size: 42652288 Hash: 0A190812852DCB10AF38BFC2CEEC9143 Accuracy: -m0 Conclusion: CDDA 100% Signature: 4BCD6BAC6AEF8EA7BBA05BA40C33BA36BFC2D71B

DRM log

foobar2000 1.3.12 / Dynamic Range Meter 1.1.1log date: 2018-05-13 16:33:40
--------------------------------------------------------------------------------Statistics for: ?-San JacintoNumber of samples: 16646144Duration: 6:17--------------------------------------------------------------------------------
Left Right
Peak Value: -0.09 dB --- -0.10 dBAvg RMS: -10.20 dB --- -10.21 dBDR channel: 6.30 dB --- 6.25 dB--------------------------------------------------------------------------------
Official DR Value: DR6
Samplerate: 44100 HzChannels: 2Bits per sample: 16Bitrate: 901 kbpsCodec: FLAC================================================================================

2018 - Tempest (Single) [05:22]


00. Tempest [00:05:22]
Instrumental.
Written arranged produced - John Beagley.
Released April 3, 2018

Лог проверки качества

-----------------------
DON'T MODIFY THIS FILE
-----------------------
PERFORMER: auCDtect Task Manager, ver. 1.6.0 RC1 build 1.6.0.1Copyright (c) 2008-2010 y-soft. All rights reservedhttp://y-soft.org
ANALYZER: auCDtect: CD records authenticity detector, version 0.8.2Copyright (c) 2004 Oleg Berngardt. All rights reserved.Copyright (c) 2004 Alexander Djourik. All rights reserved.
FILE: Tempest.flac Size: 31135876 Hash: 10212025D2AE684C8E69E2C36E0AD6BC Accuracy: -m0 Conclusion: CDDA 100% Signature: 4D8030E74E03E61D67E672CDF623B4459BEBD2A4

DRM log

foobar2000 1.3.12 / Dynamic Range Meter 1.1.1log date: 2018-05-13 16:37:29
--------------------------------------------------------------------------------Statistics for: ?-TempestNumber of samples: 14200200Duration: 5:22--------------------------------------------------------------------------------
Left Right
Peak Value: -0.10 dB --- -0.41 dBAvg RMS: -13.27 dB --- -13.89 dBDR channel: 8.90 dB --- 9.85 dB--------------------------------------------------------------------------------
Official DR Value: DR9
Samplerate: 44100 HzChannels: 2Bits per sample: 16Bitrate: 772 kbpsCodec: FLAC================================================================================
Formativ - 2014ESP - Invisible Din - 2016


[torrentc.info]_t_5561374.torrent
Торрент: Зарегистрирован ·  [ 2018-05-19 23:11 ] ·  b61aec167df9d051ff4f5757ec2ed6a8fe84c051

19 KB

Статус: проверено
Скачан: 0 раз
Размер: 834 MB
Оценка: 
(Голосов: 0)
Сказали спасибо: 0  Спасибо
Похожие темы
[Профиль]    [ЛС]
Показать сообщения:    
Ответить на тему

Текущее время: Сегодня 00:21

Часовой пояс: GMT + 7



Вы не можете начинать темы
Вы не можете отвечать на сообщения
Вы не можете редактировать свои сообщения
Вы не можете удалять свои сообщения
Вы не можете голосовать в опросах
Вы не можете прикреплять файлы к сообщениям
Вы можете скачивать файлы