(Symphonic Prog/Folk/Jazz-Rock/Fusion/Canterbury) [WEB] AppleSmellColour & Fireplace - Discography - 2015-2018, FLAC (tracks), lossless

Ответить на тему
Статистика раздачи [Обновить пиров]
Размер:  847 MB   |    Зарегистрирован:  2 месяца 29 дней   |    Скачан:  0 раз

Полного источника не было: Никогда

 
   
 
 
 
Автор Сообщение

torrentc.info

Создавать темы 19-Май-2018 23:14

[Цитировать]

AppleSmellColour & Fireplace


Discography
Жанр: Symphonic Prog/Folk/Jazz-Rock/Fusion/Canterbury
Носитель: WEB
Год издания: 2015-2018
Страна исполнителя (группы): Spain
Аудиокодек: FLAC (*.flac)
Тип рипа: tracks
Битрейт аудио: lossless
Продолжительность: 02:12:30
Источник (релизер): Fireplace / AppleSmellColour
Наличие сканов в содержимом раздачи: нет
AppleSmellColour

2015 - Unscrupulousness [56:47]


01. Strings Field [00:01:38]
02. I'm an atom in the world [00:08:44]
03. Mary Monster [00:04:26]
04. Chris [00:04:51]
05. Unscrupulousness [00:06:03]
06. Boss of wizards [00:10:22]
07. Oil Slick [00:06:11]
08. Landscape [00:04:37]
09. Blank look [00:04:19]
10. Death in the mirror [00:03:51]
11. Eleventh dimension [00:01:40]
Состав:
Lluís Barceló - Guitar
Àngel Arroyo 'Loti' - Bass
Marc Claramunt - Drums
Pep Espasa - Guitar, Saxophone and Flute
Mo Espasa - Piano, Keyboards
Uri Mas - Voice and Guitar
Released October 7, 2015

Лог проверки качества

-----------------------
DON'T MODIFY THIS FILE
-----------------------
PERFORMER: auCDtect Task Manager, ver. 1.6.0 RC1 build 1.6.0.1Copyright (c) 2008-2010 y-soft. All rights reservedhttp://y-soft.org
ANALYZER: auCDtect: CD records authenticity detector, version 0.8.2Copyright (c) 2004 Oleg Berngardt. All rights reserved.Copyright (c) 2004 Alexander Djourik. All rights reserved.
FILE: AppleSmellColour - Unscrupulousness - 11 Eleventh dimension.flac Size: 8040259 Hash: 3BE1FA198994487D29192958708AF95D Accuracy: -m0 Conclusion: CDDA 100% Signature: B94FB07CC3A09CB767578AF49EF18C794D9755E0FILE: AppleSmellColour - Unscrupulousness - 10 Death in the mirror.flac Size: 27504453 Hash: E587F1D863CC1BC45E5485DB60396689 Accuracy: -m0 Conclusion: CDDA 100% Signature: AE15310D0A3E6DF88FF240797B67C11007697FDAFILE: AppleSmellColour - Unscrupulousness - 09 Blank look.flac Size: 28896345 Hash: 25EB46FA4DDFCADAFBB6EA32F6C1216F Accuracy: -m0 Conclusion: CDDA 100% Signature: EC6E570B92DF17AD8DB31808087B289429F93806FILE: AppleSmellColour - Unscrupulousness - 08 Landscape.flac Size: 33480684 Hash: 18971A6A6AF59B8310917FFA644A2562 Accuracy: -m0 Conclusion: CDDA 99% Signature: B5B79006A3C453140EFD1CF807C98769474E89E5FILE: AppleSmellColour - Unscrupulousness - 07 Oil Slick.flac Size: 42622350 Hash: CBEA4A5320C2E41A5CA8E370D575AF74 Accuracy: -m0 Conclusion: CDDA 100% Signature: EB563E14B5003B0A8A5AE25DE086F76D7E01E3ADFILE: AppleSmellColour - Unscrupulousness - 06 Boss of wizards.flac Size: 77945572 Hash: 582216467944ED27ED53F787F6EC86BD Accuracy: -m0 Conclusion: CDDA 100% Signature: 724051074938CA167548EBC44CE49DA10A2B2C57FILE: AppleSmellColour - Unscrupulousness - 05 Unscrupulousness.flac Size: 42882547 Hash: 4E7AF4CEB0CB03FBF9EBAAB70A83F790 Accuracy: -m0 Conclusion: CDDA 100% Signature: 6FAC7D8E1262B77C0B8DEE9E5EB5BCFB04B445C1FILE: AppleSmellColour - Unscrupulousness - 04 Chris.flac Size: 32492771 Hash: 1446FDEC8CC204380D1E37E3B5C0CC2B Accuracy: -m0 Conclusion: CDDA 100% Signature: 40D2AFB34DB5D1D67BCDF641DDA5B2B463CC81C7FILE: AppleSmellColour - Unscrupulousness - 03 Mary Monster.flac Size: 31950027 Hash: D51330158C04FC35CA6F89AF43493186 Accuracy: -m0 Conclusion: CDDA 100% Signature: 4CE0151B7755DBD256E896C34F9CBE947D8FBC58FILE: AppleSmellColour - Unscrupulousness - 02 I'm an atom in the world.flac Size: 60934294 Hash: 85926398FD3C4CD5E2A337DB076FE046 Accuracy: -m0 Conclusion: CDDA 100% Signature: C69935456989F60F598E277625E80879D4E69314FILE: AppleSmellColour - Unscrupulousness - 01 Strings Field.flac Size: 10605933 Hash: D99EB565EFD3DCC32D17196703877682 Accuracy: -m0 Conclusion: CDDA 100% Signature: EAD7AD4690E2BDAEA97B7D1C1851D78BE83C14CA

DRM log

foobar2000 1.3.12 / Dynamic Range Meter 1.1.1log date: 2018-05-14 19:29:19
--------------------------------------------------------------------------------Analyzed: AppleSmellColour / Unscrupulousness--------------------------------------------------------------------------------
DR Peak RMS Duration Track--------------------------------------------------------------------------------DR7 -3.80 dB -13.52 dB 1:39 01-Strings FieldDR8 0.00 dB -9.90 dB 8:44 02-I'm an atom in the worldDR7 0.00 dB -8.23 dB 4:27 03-Mary MonsterDR7 0.00 dB -8.89 dB 4:51 04-ChrisDR7 0.00 dB -8.39 dB 6:03 05-UnscrupulousnessDR7 0.00 dB -8.12 dB 10:23 06-Boss of wizardsDR8 0.00 dB -9.93 dB 6:11 07-Oil SlickDR7 0.00 dB -8.09 dB 4:37 08-LandscapeDR6 0.00 dB -9.67 dB 4:19 09-Blank lookDR6 0.00 dB -8.73 dB 3:52 10-Death in the mirrorDR10 -0.72 dB -15.54 dB 1:41 11-Eleventh dimension--------------------------------------------------------------------------------
Number of tracks: 11Official DR value: DR7
Samplerate: 44100 HzChannels: 2Bits per sample: 16Bitrate: 627 kbpsCodec: FLAC================================================================================

2016 - Fireplace (Acoustic EP) [18:15]


01. No night country [00:03:01]
02. The flavour of you [00:05:34]
03. Small steps for big roads [00:04:15]
04. Olor de terra endins [00:05:24]
Состав:
Uri Mas - Vocals, Jazz Guitar, Vocals Arrangements
Lluís barceló - Acoustic Guitar
Pep Espasa - Flute, Acoustic Guitar, Soprano Saxophone
Mo Espada / Piano and MicroKorg
Marc Claramunt - Drums and Percussion
Angel Arroyo 'Loti' - Bass
Les Fourchettes:
(Elia Piera, Eulàlia Rosa, Iris di Cassi, Paula Sánchez-Valverde) - Backing Vocals
Released April 16, 2016

Лог проверки качества

-----------------------
DON'T MODIFY THIS FILE
-----------------------
PERFORMER: auCDtect Task Manager, ver. 1.6.0 RC1 build 1.6.0.1Copyright (c) 2008-2010 y-soft. All rights reservedhttp://y-soft.org
ANALYZER: auCDtect: CD records authenticity detector, version 0.8.2Copyright (c) 2004 Oleg Berngardt. All rights reserved.Copyright (c) 2004 Alexander Djourik. All rights reserved.
FILE: AppleSmellColour - Fireplace - 04 Olor de terra endins.flac Size: 35097484 Hash: BEA3C0366185FB7FB827102BC6E00867 Accuracy: -m0 Conclusion: CDDA 99% Signature: C15A88B0DEE35A007C46E371120D574E47F75141FILE: AppleSmellColour - Fireplace - 03 Small steps for big roads.flac Size: 26551763 Hash: EAEE6449268EFBAE60CA9B9783312C5E Accuracy: -m0 Conclusion: CDDA 99% Signature: 19D133C5E85207ED16C17090F2111E3E55197003FILE: AppleSmellColour - Fireplace - 02 The flavour of you.flac Size: 35731790 Hash: D8BAAE8560466200E197C1C28845FDB8 Accuracy: -m0 Conclusion: CDDA 100% Signature: 4232B2A62990999C3580605557F5CB3FC2F4495BFILE: AppleSmellColour - Fireplace - 01 No night country.flac Size: 17481385 Hash: 950566118AFA421C3F75994B28CAA646 Accuracy: -m0 Conclusion: CDDA 100% Signature: A5A6E8A671C8855AE7D1C7117F1ACC309EF76402

DRM log

foobar2000 1.3.12 / Dynamic Range Meter 1.1.1log date: 2018-05-14 19:39:03
--------------------------------------------------------------------------------Analyzed: AppleSmellColour / Fireplace--------------------------------------------------------------------------------
DR Peak RMS Duration Track--------------------------------------------------------------------------------DR8 -0.20 dB -11.54 dB 3:02 01-No night countryDR7 -0.20 dB -9.53 dB 5:35 02-The flavour of youDR7 -0.20 dB -10.26 dB 4:16 03-Small steps for big roadsDR6 -0.20 dB -8.88 dB 5:24 04-Olor de terra endins--------------------------------------------------------------------------------
Number of tracks: 4Official DR value: DR7
Samplerate: 44100 HzChannels: 2Bits per sample: 16Bitrate: 863 kbpsCodec: FLAC================================================================================

2017 - Capsa de Música Live (Single) [04:27]


01. Mary Monster [00:04:27]
Released May 12, 2017

Лог проверки качества

-----------------------
DON'T MODIFY THIS FILE
-----------------------
PERFORMER: auCDtect Task Manager, ver. 1.6.0 RC1 build 1.6.0.1Copyright (c) 2008-2010 y-soft. All rights reservedhttp://y-soft.org
ANALYZER: auCDtect: CD records authenticity detector, version 0.8.2Copyright (c) 2004 Oleg Berngardt. All rights reserved.Copyright (c) 2004 Alexander Djourik. All rights reserved.
FILE: AppleSmellColour - Capsa de Música Live Vol.01 - AppleSmellColour - 01 Mary Monster.flac Size: 29320589 Hash: 1B4AAA495BACE271E2B24B862D7BDCB4 Accuracy: -m0 Conclusion: CDDA 100% Signature: 2567EA34CE4577EF8F35E900A400D1EE0F291456

DRM log

foobar2000 1.3.12 / Dynamic Range Meter 1.1.1log date: 2018-05-14 19:32:45
--------------------------------------------------------------------------------Statistics for: 01-Mary MonsterNumber of samples: 11798535Duration: 4:28--------------------------------------------------------------------------------
Left Right
Peak Value: -0.20 dB --- -0.20 dBAvg RMS: -9.43 dB --- -9.69 dBDR channel: 7.55 dB --- 7.89 dB--------------------------------------------------------------------------------
Official DR Value: DR8
Samplerate: 44100 HzChannels: 2Bits per sample: 16Bitrate: 874 kbpsCodec: FLAC================================================================================
Fireplace

2017 - Live @ Arbúcies [16:58]


01. I'm an Atom in the World - Live [00:07:23]
02. Mary Monster - Live [00:04:49]
03. Chris - Live [00:04:45]
Recorden on May 13th, 2017
Released August 25, 2017

Лог проверки качества

-----------------------
DON'T MODIFY THIS FILE
-----------------------
PERFORMER: auCDtect Task Manager, ver. 1.6.0 RC1 build 1.6.0.1Copyright (c) 2008-2010 y-soft. All rights reservedhttp://y-soft.org
ANALYZER: auCDtect: CD records authenticity detector, version 0.8.2Copyright (c) 2004 Oleg Berngardt. All rights reserved.Copyright (c) 2004 Alexander Djourik. All rights reserved.
FILE: Fireplace - Live @ Arbúcies - 03 Chris - Live.flac Size: 29180688 Hash: 3C651B319B2C86F82341B3AF97769AAA Accuracy: -m0 Conclusion: CDDA 100% Signature: 77C06F8FA7CAECD6D49548D54A752E961DBC7E26FILE: Fireplace - Live @ Arbúcies - 02 Mary Monster - Live.flac Size: 34872659 Hash: 4A2AE9159BE631AFE3C409FC22D783DE Accuracy: -m0 Conclusion: CDDA 99% Signature: E6CCFD2CF0A20BB9BA26068030A0BC2810412120FILE: Fireplace - Live @ Arbúcies - 01 I'm an Atom in the World - Live.flac Size: 51302182 Hash: F441A9E2FFA2EEDAAD4BA1B335EC0791 Accuracy: -m0 Conclusion: CDDA 100% Signature: BA21821825EA6A7CAA49E57FF5F5FBAE9F51E131

DRM log

foobar2000 1.3.12 / Dynamic Range Meter 1.1.1log date: 2018-05-14 15:43:31
--------------------------------------------------------------------------------Analyzed: Fireplace / Live @ Arbúcies--------------------------------------------------------------------------------
DR Peak RMS Duration Track--------------------------------------------------------------------------------DR10 0.00 dB -11.98 dB 7:23 01-I'm an Atom in the World - LiveDR8 0.00 dB -10.05 dB 4:50 02-Mary Monster - LiveDR9 0.00 dB -12.79 dB 4:46 03-Chris - Live--------------------------------------------------------------------------------
Number of tracks: 3Official DR value: DR9
Samplerate: 44100 HzChannels: 2Bits per sample: 16Bitrate: 814 kbpsCodec: FLAC================================================================================

2018 - Test Pressing [36:01]


01. Apple Smell Colour [00:04:04]
02. The crazy acrobat [00:07:45]
03. The Hermit [00:05:14]
04. After the victory [00:05:06]
05. A new Robin Hood [00:07:15]
06. The river's end [00:04:50]
07. And you by my side [00:01:46]
Состав:
Lluís Barceló: Composition & Guitars
Uri Mas: Lead Vocal & Vocal Arrangements
Noel Alzola: Fretless Bass
Miguel Gonzalez: Piano & Keyboards
Rafa Lagunas: Drums
Arnau Bonet: Saxophone
Paula Sánchez-Valverde: Backing Vocals
Iris Di Cassi: Backing Vocals
Eulàlia Rosa: Backing Vocals
Elia Piera: Backing Vocals
Bernat Mateu: Sound Engineer
Released May 9, 2018

Лог проверки качества

-----------------------
DON'T MODIFY THIS FILE
-----------------------
PERFORMER: auCDtect Task Manager, ver. 1.6.0 RC1 build 1.6.0.1Copyright (c) 2008-2010 y-soft. All rights reservedhttp://y-soft.org
ANALYZER: auCDtect: CD records authenticity detector, version 0.8.2Copyright (c) 2004 Oleg Berngardt. All rights reserved.Copyright (c) 2004 Alexander Djourik. All rights reserved.
FILE: Fireplace - Test Pressing - 07 And you by my side.flac Size: 10790273 Hash: 1FE4A4B83F9C7C60A2396DAE61CA7508 Accuracy: -m0 Conclusion: CDDA 100% Signature: E4944E418188F8CDA57BC77C1F5041285BF6B975FILE: Fireplace - Test Pressing - 06 The river's end.flac Size: 28174760 Hash: 095BC519A108AADFE403E5F6B1A4FF90 Accuracy: -m0 Conclusion: CDDA 100% Signature: 988FC5624913CDF25F31426D5359245B2D41C513FILE: Fireplace - Test Pressing - 05 A new Robin Hood.flac Size: 47669277 Hash: C120B0B2E4ED82FF6D7E1AFADB6A81F8 Accuracy: -m0 Conclusion: CDDA 100% Signature: A0468F19BC1CBC7A41812797DDC8EBD9A7E3B8AEFILE: Fireplace - Test Pressing - 04 After the victory.flac Size: 34634105 Hash: 9275C45BFA08E4E6794C453AEBEA515B Accuracy: -m0 Conclusion: CDDA 100% Signature: 162328FCF977698D66F9DC49B16BF081F122D8B5FILE: Fireplace - Test Pressing - 03 The Hermit.flac Size: 32648806 Hash: 0262864D9D4404F804F21D5B3AF90E11 Accuracy: -m0 Conclusion: CDDA 100% Signature: E15EEC419A4553D621CD94BE1D6B8F25D1C2EAA8FILE: Fireplace - Test Pressing - 02 The crazy acrobat.flac Size: 47995922 Hash: 17C6ABCD0FC3C6FB51C5802062BDFF90 Accuracy: -m0 Conclusion: CDDA 100% Signature: 0862861A9CEA5E3A8111D81B6DD76508F038F90CFILE: Fireplace - Test Pressing - 01 Apple Smell Colour.flac Size: 23840631 Hash: 414319475191D27F363E0BDAAE76FEA9 Accuracy: -m0 Conclusion: CDDA 100% Signature: 275AFBD28F0B500CA8742B1C41D189BBE623F9A7

DRM log

foobar2000 1.3.12 / Dynamic Range Meter 1.1.1log date: 2018-05-14 15:33:58
--------------------------------------------------------------------------------Analyzed: Fireplace / Test Pressing--------------------------------------------------------------------------------
DR Peak RMS Duration Track--------------------------------------------------------------------------------DR7 0.00 dB -10.77 dB 4:04 01-Apple Smell ColourDR8 0.00 dB -10.88 dB 7:46 02-The crazy acrobatDR7 0.00 dB -9.97 dB 5:14 03-The HermitDR7 0.00 dB -8.96 dB 5:07 04-After the victoryDR7 0.00 dB -9.53 dB 7:16 05-A new Robin HoodDR7 0.00 dB -11.12 dB 4:50 06-The river's endDR7 0.00 dB -9.36 dB 1:46 07-And you by my side--------------------------------------------------------------------------------
Number of tracks: 7Official DR value: DR7
Samplerate: 44100 HzChannels: 2Bits per sample: 16Bitrate: 804 kbpsCodec: FLAC================================================================================

Все благодарности за альбом AppleSmellColour - Unscrupulousness (2015) адресуются уважаемым wurensh и 4reigner


[torrentc.info]_t_5561770.torrent
Торрент: Зарегистрирован ·  [ 2018-05-19 23:11 ] ·  339e6f5bf4669013fec8cc977b5c7c1075e7b6f0

21 KB

Статус: проверено
Скачан: 0 раз
Размер: 847 MB
Оценка: 
(Голосов: 0)
Сказали спасибо: 0  Спасибо
Похожие темы
[Профиль]    [ЛС]
Показать сообщения:    
Ответить на тему

Текущее время: Сегодня 05:32

Часовой пояс: GMT + 7



Вы не можете начинать темы
Вы не можете отвечать на сообщения
Вы не можете редактировать свои сообщения
Вы не можете удалять свои сообщения
Вы не можете голосовать в опросах
Вы не можете прикреплять файлы к сообщениям
Вы можете скачивать файлы