(Progressive & Art-Rock) [WEB] The Yellow Box - s/t - 2018, FLAC (tracks), lossless

Ответить на тему
Статистика раздачи [Обновить пиров]
Размер:  406 MB   |    Зарегистрирован:  4 месяца 29 дней   |    Скачан:  0 раз

Полного источника не было: Никогда

 
   
 
 
 
Автор Сообщение

torrentc.info

Создавать темы 19-Май-2018 23:14

[Цитировать]

The Yellow Box / s/t
[img=right]https://b.radikal.ru/b41/1805/77/39e08fd97e8a.png[/img]
Жанр: Progressive & Art-Rock
Носитель: WEB
Год издания: 2018
Страна исполнителя (группы): USA
Аудиокодек: FLAC (*.flac)
Тип рипа: tracks
Битрейт аудио: lossless
Продолжительность: 01:00:02
Источник (релизер): Bandcamp
Наличие сканов в содержимом раздачи: нет

01. The Forever Man [00:11:37]
02. A Song for Traveller [00:06:18]
03. Chasing the Squid [00:05:44]
04. Colors of the Ocean [00:08:18]
05. Three Days Before [00:04:56]
06. Carouxtia Minor [00:04:18]
07. Locus Ceruleus [00:18:48]
Released January 11, 2018

Состав

Charlie Labs: Vocals and Keyboards
Chris Merlo: Bass Guitars and Chapman Stick
Rich Moscatelli: Drums
Bill Ayasse (Frogg Cafe): Violin Solo on "Chasing the Squid", Recorded
Brett Kull (Echolyn): Mixed
James Schoen (Edensong): Mastered

Лог проверки качества

-----------------------
DON'T MODIFY THIS FILE
-----------------------
PERFORMER: auCDtect Task Manager, ver. 1.6.0 RC1 build 1.6.0.1Copyright (c) 2008-2010 y-soft. All rights reservedhttp://y-soft.org
ANALYZER: auCDtect: CD records authenticity detector, version 0.8.2Copyright (c) 2004 Oleg Berngardt. All rights reserved.Copyright (c) 2004 Alexander Djourik. All rights reserved.
FILE: The Yellow Box - The Yellow Box - 07 Locus Ceruleus.flac Size: 126300518 Hash: 4D016C7CAF23F8F20783FA73B844A184 Accuracy: -m0 Conclusion: CDDA 99% Signature: 3C14B6485280C68AB787851B1241A208756A0266FILE: The Yellow Box - The Yellow Box - 06 Carouxtia Minor.flac Size: 31220152 Hash: F2D822D71D7DAB84E1A4693617B4E34F Accuracy: -m0 Conclusion: CDDA 100% Signature: EC9D5779611CABE87F8C7B3397CA0DE3A4B90B26FILE: The Yellow Box - The Yellow Box - 05 Three Days Before.flac Size: 37809211 Hash: D3D55D9CDF3B37F5B4E7E53FA884C13F Accuracy: -m0 Conclusion: CDDA 100% Signature: 91C3FCB69761B2F490701BD090DF5122313E4B1AFILE: The Yellow Box - The Yellow Box - 04 Colors of the Ocean.flac Size: 57652172 Hash: 0950E19C154C474FD31FE137AC83827F Accuracy: -m0 Conclusion: CDDA 100% Signature: 5FF0444165BD1E16A5C946376B246A2673DDF243FILE: The Yellow Box - The Yellow Box - 03 Chasing the Squid.flac Size: 41929554 Hash: C57DDD258D145B86001D58F2501DFC36 Accuracy: -m0 Conclusion: CDDA 99% Signature: 200DF419D1A5DEED0BFBB370EFBF50F967B1E05CFILE: The Yellow Box - The Yellow Box - 02 A Song for Traveller.flac Size: 43306964 Hash: 0907C9AE0CCA04A62F455F805470953E Accuracy: -m0 Conclusion: CDDA 100% Signature: 776FF20E0792DDA8A76E89D988609A9D8F8526D4FILE: The Yellow Box - The Yellow Box - 01 The Forever Man.flac Size: 83552022 Hash: 1F644EEC48AC477DB73D88E3E4DDA657 Accuracy: -m0 Conclusion: CDDA 100% Signature: 2AB767CEFA43931390EA639202AF421EC494D959

DRM log

foobar2000 1.3.12 / Dynamic Range Meter 1.1.1log date: 2018-05-15 11:40:11
--------------------------------------------------------------------------------Analyzed: The Yellow Box / The Yellow Box--------------------------------------------------------------------------------
DR Peak RMS Duration Track--------------------------------------------------------------------------------DR9 -0.20 dB -10.38 dB 11:38 01-The Forever ManDR9 -0.20 dB -10.37 dB 6:18 02-A Song for TravellerDR8 -0.20 dB -9.62 dB 5:45 03-Chasing the SquidDR8 -0.20 dB -10.05 dB 8:18 04-Colors of the OceanDR8 -0.20 dB -9.72 dB 4:56 05-Three Days BeforeDR10 -0.20 dB -11.51 dB 4:18 06-Carouxtia MinorDR9 -0.20 dB -11.85 dB 18:49 07-Locus Ceruleus--------------------------------------------------------------------------------
Number of tracks: 7Official DR value: DR9
Samplerate: 44100 HzChannels: 2Bits per sample: 16Bitrate: 894 kbpsCodec: FLAC================================================================================


[torrentc.info]_t_5562120.torrent
Торрент: Зарегистрирован ·  [ 2018-05-19 23:11 ] ·  d9baf08c4424f572786a5579f6cf3bec86128674

17 KB

Статус: проверено
Скачан: 0 раз
Размер: 406 MB
Оценка: 
(Голосов: 0)
Сказали спасибо: 0  Спасибо
Похожие темы
[Профиль]    [ЛС]
Показать сообщения:    
Ответить на тему

Текущее время: Сегодня 01:50

Часовой пояс: GMT + 7



Вы не можете начинать темы
Вы не можете отвечать на сообщения
Вы не можете редактировать свои сообщения
Вы не можете удалять свои сообщения
Вы не можете голосовать в опросах
Вы не можете прикреплять файлы к сообщениям
Вы можете скачивать файлы