(Progressive Rock) [CD] Muzak - In Case Of Loss, Please Return To : - 2006, FLAC (image+.cue), lossless

Ответить на тему
Статистика раздачи [Обновить пиров]
Размер:  416 MB   |    Зарегистрирован:  4 месяца 29 дней   |    Скачан:  0 раз

Полного источника не было: Никогда

 
   
 
 
 
Автор Сообщение

torrentc.info

Создавать темы 19-Май-2018 23:14

[Цитировать]

Muzak / In Case Of Loss, Please Return To :
Жанр: Progressive Rock / Fusion / Psychedelic
Носитель: CD
Страна-производитель диска (релиза): Italy
Год издания: 2006
Издатель (лейбл): Lizard Records
Номер по каталогу: CD 0044
Страна исполнителя (группы): Italy
Аудиокодек: FLAC (*.flac)
Тип рипа: image+.cue
Битрейт аудио: lossless
Продолжительность: 68:59
Источник (релизер): ringo13
Наличие сканов в содержимом раздачи: нет
Треклист:
1. The Holy Graal Is Buried Under The Football Ground (11:05)
2. In Case Of Loss (3:08)
3. First Time: Only Supernaut (4:30)
4. Cathedrals In The Desert (2:04)
5. The Trojan Horse Is Buried Under The Football Ground (7:07)
6. Oxygen, Opiates And Other Pale Ideas (4:16)
7. First Time: Only Supernaut (Coda) (2:52)
8. Telemachus Is Walking On Arvasi (6:52)
9. Keny. Lanisgoo (7:15)
10. In Case Of Dream Without Numbers (3:31)
11. The Black Holes Help Us To Understand Our Next Microscopical Life (8:05)
12. If Me You Fly I'm Your Wings (5:49)
13. Sad Hydrogen And Small Hard Tack Fish (2:24)

Лог создания рипа

Exact Audio Copy V1.0 beta 4 from 7. December 2014
Отчёт EAC об извлечении, выполненном 11. марта 2018, 22:37
MUZAK / IN CASE OF LOSS PLEASE RETURN TO
Дисковод: HL-DT-STDVDRAM GU71N Adapter: 1 ID: 0
Режим чтения : ДостоверностьИспользование точного потока : ДаОтключение кэша аудио : ДаИспользование указателей C2 : Нет
Коррекция смещения при чтении : 6Способность читать области Lead-in и Lead-out : НетЗаполнение пропущенных сэмплов тишиной : ДаУдаление блоков с тишиной в начале и конце : НетПри вычислениях CRC использовались нулевые сэмплы : ДаИнтерфейс : Встроенный Win32-интерфейс для Win NT/2000
Выходной формат : Пользовательский кодировщикВыбранный битрейт : 768 kBit/sКачество : ВысокийДобавление ID3-тега : НетУтилита сжатия : C:\Program Files (x86)\Exact Audio Copy\FLAC\FLAC.EXEДополнительные параметры : -V -8 -T "Date=%year%" -T "Genre=%genre%" %source%
TOC извлечённого CD
Трек | Старт | Длительность | Начальный сектор | Конечный сектор --------------------------------------------------------------------- 1 | 0:00.00 | 11:05.14 | 0 | 49888 2 | 11:05.14 | 3:07.68 | 49889 | 63981 3 | 14:13.07 | 4:30.00 | 63982 | 84231 4 | 18:43.07 | 2:04.14 | 84232 | 93545 5 | 20:47.21 | 7:07.32 | 93546 | 125602 6 | 27:54.53 | 4:15.41 | 125603 | 144768 7 | 32:10.19 | 2:52.28 | 144769 | 157696 8 | 35:02.47 | 6:52.14 | 157697 | 188610 9 | 41:54.61 | 7:14.54 | 188611 | 221214 10 | 49:09.40 | 3:30.70 | 221215 | 237034 11 | 52:40.35 | 8:04.43 | 237035 | 273377 12 | 60:45.03 | 5:48.47 | 273378 | 299524 13 | 66:33.50 | 2:23.71 | 299525 | 310320
Характеристики диапазона извлечения и сообщения об ошибках
Выбранный диапазон
Имя файла D:\Users\User\Documents\MUZAK - IN CASE OF LOSS PLEASE RETURN TO.wav
Пиковый уровень 100.0 % Скорость извлечения 5.0 X Качество диапазона 100.0 % CRC теста 92CF352B CRC копии 92CF352B Копирование... OK
Ошибок не произошло
AccurateRip: сводка
Трек 1 отсутствует в базе данныхТрек 2 отсутствует в базе данныхТрек 3 отсутствует в базе данныхТрек 4 отсутствует в базе данныхТрек 5 отсутствует в базе данныхТрек 6 отсутствует в базе данныхТрек 7 отсутствует в базе данныхТрек 8 отсутствует в базе данныхТрек 9 отсутствует в базе данныхТрек 10 отсутствует в базе данныхТрек 11 отсутствует в базе данныхТрек 12 отсутствует в базе данныхТрек 13 отсутствует в базе данных
Ни одного трека нет в базе AccurateRip
Конец отчёта
==== Контрольная сумма отчёта 543A8F6AAEC392468CF2B147FDE42F779AD5C14559625D5FF5F14C24B26A8681 ====

Содержание индексной карты (.CUE)

REM GENRE PROGREM DATE 2006REM DISCID C310290DREM COMMENT "ExactAudioCopy v1.0b4"PERFORMER "Muzak"TITLE "In Case Of Loss, Please Return To"FILE "Muzak - In Case Of Loss, Please Return To.flac" WAVE TRACK 01 AUDIO TITLE "The Holy Graal Is Buried Under The Football Ground" PERFORMER "MUZAK" INDEX 01 00:00:00 TRACK 02 AUDIO TITLE " In Case Of Loss" PERFORMER "MUZAK" INDEX 00 11:04:14 INDEX 01 11:05:14 TRACK 03 AUDIO TITLE "First Time: Only Supernaut" PERFORMER "MUZAK" INDEX 00 14:11:07 INDEX 01 14:13:07 TRACK 04 AUDIO TITLE "Cathedrals In The Desert" PERFORMER "MUZAK" INDEX 00 18:41:07 INDEX 01 18:43:07 TRACK 05 AUDIO TITLE "The Trojan Horse Is Buried Under The Football Ground" PERFORMER "MUZAK" INDEX 00 20:45:14 INDEX 01 20:47:21 TRACK 06 AUDIO TITLE "Oxygen, Opiates And Other Pale Ideas" PERFORMER "MUZAK" INDEX 01 27:54:53 TRACK 07 AUDIO TITLE "First Time: Only Supernaut (Coda)" PERFORMER "MUZAK" INDEX 01 32:10:19 TRACK 08 AUDIO TITLE "Telemachus Is Walking On Arvasi" PERFORMER "MUZAK" INDEX 00 34:47:47 INDEX 01 35:02:47 TRACK 09 AUDIO TITLE "Keny. Lanisgoo" PERFORMER "MUZAK" INDEX 01 41:54:61 TRACK 10 AUDIO TITLE "In Case Of Dream Without Numbers" PERFORMER "MUZAK" INDEX 01 49:09:40 TRACK 11 AUDIO TITLE "The Black Holes Help Us To Understand Our Next Microscopical Life" PERFORMER "MUZAK" INDEX 00 52:38:35 INDEX 01 52:40:35 TRACK 12 AUDIO TITLE "If Me You Fly I'm Your Wings" PERFORMER "MUZAK" INDEX 00 60:44:03 INDEX 01 60:45:03 TRACK 13 AUDIO TITLE "Sad Hydrogen And Small Hard Tack Fish" PERFORMER "MUZAK" INDEX 00 66:29:50 INDEX 01 66:33:50

CUETools Log

[CUETools log; Date: 28.04.2018 14:21:53; Version: 2.1.5][CTDB TOCID: A2hU9WWs.w5jPngKWGda6JnGYxo-] found.Track | CTDB Status 1 | (2/2) Accurately ripped 2 | (2/2) Accurately ripped 3 | (2/2) Accurately ripped 4 | (2/2) Accurately ripped 5 | (2/2) Accurately ripped 6 | (2/2) Accurately ripped 7 | (2/2) Accurately ripped 8 | (2/2) Accurately ripped 9 | (2/2) Accurately ripped 10 | (2/2) Accurately ripped 11 | (2/2) Accurately ripped 12 | (2/2) Accurately ripped 13 | (2/2) Accurately ripped[AccurateRip ID: 0022544b-015225d1-c310290d] disk not present in database.
Track Peak [ CRC32 ] [W/O NULL] [ LOG ] -- 99,9 [92CF352B] [FD86B908] CRC32 01 99,9 [78827A05] [1D2C996F] 02 99,9 [1BD37CA3] [DD9C75E3] 03 99,9 [022C8105] [B9E1DA3A] 04 79,4 [CAD38633] [AFBC8950] 05 99,9 [C29E3256] [323863A7] 06 99,9 [8F1E2963] [406F5E68] 07 99,9 [52CBF7F0] [EE644969] 08 99,9 [6A9C13EA] [75C30283] 09 99,9 [B547D900] [F8B8A6C0] 10 56,2 [4D89AEEA] [F7BA75EE] 11 99,9 [2EB9FF2B] [169B15F6] 12 99,9 [C2A71A9E] [19E6FBF1] 13 63,1 [2F069B6A] [AB91BCC8]

foo_dr

foobar2000 1.3.17 / Dynamic Range Meter 1.1.1log date: 2018-04-27 20:00:44
--------------------------------------------------------------------------------Analyzed: MUZAK / In Case Of Loss, Please Return To--------------------------------------------------------------------------------
DR Peak RMS Duration Track--------------------------------------------------------------------------------DR4 0.00 dB -7.95 dB 11:05 01-The Holy Graal Is Buried Under The Football GroundDR7 0.00 dB -10.12 dB 3:08 02- In Case Of LossDR6 0.00 dB -9.06 dB 4:30 03-First Time: Only SupernautDR12 -2.00 dB -17.42 dB 2:04 04-Cathedrals In The DesertDR4 0.00 dB -7.91 dB 7:07 05-The Trojan Horse Is Buried Under The Football GroundDR5 0.00 dB -8.52 dB 4:16 06-Oxygen, Opiates And Other Pale IdeasDR7 0.00 dB -9.44 dB 2:52 07-First Time: Only Supernaut (Coda)DR4 0.00 dB -7.98 dB 6:52 08-Telemachus Is Walking On ArvasiDR4 0.00 dB -6.99 dB 7:15 09-Keny. LanisgooDR10 -5.00 dB -17.22 dB 3:31 10-In Case Of Dream Without NumbersDR5 -0.01 dB -7.69 dB 8:05 11-The Black Holes Help Us To Understand Our Next Microscopical LifeDR8 -0.01 dB -11.29 dB 5:49 12-If Me You Fly I'm Your WingsDR11 -4.00 dB -17.96 dB 2:24 13-Sad Hydrogen And Small Hard Tack Fish--------------------------------------------------------------------------------
Number of tracks: 13Official DR value: DR7
Samplerate: 44100 HzChannels: 2Bits per sample: 16Bitrate: 844 kbpsCodec: FLAC================================================================================

Об исполнителе (группе)

Знаете ли вы, что словом “muzak” в современном музыковедении обозначают «различные формы популярной инструментальной музыки, которая используется для фонового воспроизведения в местах общественного присутствия, как то: универмагах, учреждениях общепита, гостиницах, железнодорожных вокзалах, аэропортах, офисах и т.п.»? Стилистически – это чаще всего изи-листенинг, смус-джаз, релакс-электроника и пр. Для тиражирования и распространения подобной музыки существуют даже специальные компании: например, Muzak Holdings LLC, основанная еще в 1934 году и ныне обеспечивающая «аудио-фоновым продуктом» основной сегмент общественных присутствий в США. Бизнес, как говорят, весьма прибыльный, что стимулирует привлечение к делу заслуженных и именитых продюсеров, артистов, композиторов и аранжировщиков… Коллективов и проектов, использующих в качестве названия идентификатор «музак», по всему миру существует множество. Одна из таких групп – итальянский квартет MUZAK из региона Саленто в составе: Giuseppe Calignano (бас, гитара, банжо, мелодика, глокеншпиль, электроника, голос), Enrico Russo (клавишные, синтезаторы, электроника, голос), Alberto Piccinni (гитары, голос) и Gigi Calabro (ударные, голос). Коллектив формализовался в 2000 году. В 2003-ем подготовил демо-запись Each Day Ends; в 2005-ом – свой единственный на сегодняшний день профессиональный альбом In Case Of Loss Please Return To. На следующий год его релиз осуществил авторитетный итальянский прог-экспериментальный лейбл Lizard Records… В записи материала, помимо основного исполнительского квартета, приняло участие довольно большое число сессионных музыкантов и просто друзей, сыгравших партии всевозможных смычковых, духовых и кнопочных инструментов, а также девушка-вокалистка и хор сопровождения. Вопреки солидному представительству поющих людей, музыка у MUZAK преимущественно инструментальная – вокально-лирических фрагментов (все они на английском языке) едва ли наберется на треть звучания, и в целом они воспринимаются как своеобразные «комментарии от автора» к инструментальной постановке. Разворачивается она в неторопливой, вкрадчивой, мягкой, артистичной и интеллигентно-ненавязчивой манере. Ее режиссеры искусно переплетают жанрово-стилистические влияния, комбинируют электрическое, акустическое и электронно-программированное звучание, огромное внимание уделяют нюансам аранжировки и благозвучности извлекаемых гармоний. Музыка завораживает, расслабляет, обволакивает магической аурой доброго волшебства, позволяет отвлечься и забыть на какое-то время о прозаичности бытия. Напоминает новые сказки «старой Кентерберийской сцены» или «барретт-пинфлойдовские» истории, изложенные на языке детей нойз-уолла и чилл-аута… Вполне допускаю, что что-то из I.C.O.L.P.R.T. действительно может кем-то использоваться в качестве «фонового декорирования акустического пространства», тем оправдывая название, под которым выступает группа. Но я бы рекомендовал для начала очень внимательно вслушаться в то, что предлагают MUZAK, и постараться услышать все композиции их альбома в драматургической последовательности и целостности. Эстетическое удовольствие от знакомства с исключительно многогранным и самобытным миром итальянского коллектива в этом случае гарантировано! (c) http://www.raig.ru/distro_Lizard.asp

Об альбоме

Prolusion. It is the first three musicians in the lineup above who formed MUZAK (in 2000 in Salento - a town in the deep south of Italy, facing Greece), while Gigi Calabro joined later, in 2003. Officially, "In Case of Loss Please Return To" is the group's debut release, although their first studio experience took place more than three years ago; they then recorded a demo album titled "Each Day Ends". I have no idea why the musicians called themselves "Muzak", but I'd like to note from the outset: their music never brings to mind what the band's name suggests - in either of the word's two meanings. The recording features the participation of several session musicians, none of whom is mentioned in the booklet, nor even on the outfit's website. All lyrics are in English.
Analysis. Don't be alarmed, dear readers, when seeing that each of the four players is also heralded as a singer. Only eight of the recording's thirteen tracks contain vocals, but inasmuch as only four of these are rich in singing (and the shortest tracks moreover), the others being either largely instrumental or revealing only occasional vocals, no less than two thirds of the album consists of all-instrumental music which, in turn, finds Muzak at their most adventurous and original alike. In short, it is only the four song-based tunes that bear the signs of outside factors, and since these are very accessible in addition, they sound sharply different from the rest of the material. Three of these, The Trojan Horse, In Case of Dream and Sad Hydrogen, all instantly bring to mind the name of Roger Waters, though only the latter with reference to the artist's solo creations - even though it is sung by a female singer. The Trojan Horse and In Case of Dream both strongly resemble Pink Floyd's Pigs on the Wing from "Animals" and Get Your Filthy Hands Off My Desert from "The Final Cut" respectively, the latter straightway pushing me to join in: "Brezhnev took Afghanistan, Begin took Beirut". Despite its abundance in singing too, In Case of Loss is a very pleasing tune, with some magic ballad-like moments reminiscent of Genesis's "Trespass". The first half of Cathedrals, where a rather plain vocal-laden theme unfolds to terribly monotonous galosh-like-sounding machinery, is the only episode on the disc that annoys me. Thankfully, the cut's subsequent - purely instrumental - content, while defying a precise stylistic classification, is interesting enough to make the entire thing sound at least tolerable. The remaining three tracks having a lyrical component (just one quatrain, performed by a mixed choir in all cases), Your Wings, Black Holes and Oxygen, open the long line of the disc's highlights, each containing too few vocal parts to be considered a true song. From here on, Muzak appear as a group of musicians playing exclusively original, innovative and, at the same time, profound music. Your Wings begins with a choir singing over piano accompaniment, then evolves a brief Noise Rock-like interlude, but finally blossoms into a wonderful, real classical Waltz involving various chamber instruments, orchestral drums and cymbals included. All the other yet-to-be described tracks are linked together, as one of the basic constituents of each is Minimalist music by means of Art-Rock, First Time and First Time Coda both completely lying within that idiom. Terry Riley's cornerstone minimalist creation, "In C", can serve as a relative reference regarding these two. The electric piano and drums set up the initial theme, which gradually becomes surrounded by the addition of glockenspiel, guitar, bass and some other instruments joining steadily to have a highly-multi-layered palette where each of the musicians plays a different solo, semi-improvising within the framework, creating a charming, almost kaleidoscopically-changing picture. As is hinted above however, our brave Italians don't lock themselves within a single theme, quite frequently shifting these - most often together with meters and paces as well; hence Minimalist music by means of Art-Rock. The five longest tracks, The Holy Grail, Oxygen, Telemachus, Keuy and Black Holes are the most diverse, alternating the approach just described with Symphonic Progressive in its traditional form, though Keuy is additionally notable for some punk-rock- and even RIO-like movements. It also must be mentioned that Black Holes is symphonic in its basis, while the trumpet solo that runs almost all through the piece is distinctly jazzy, thus creating an amazing contrast. All the instrumental cuts, and those for the most part so, are highly impressive, but the five described last are all really something startling.
Conclusion. The four song-based tracks and the one with the annoying machinery, while none is bad, each contributed its mite to somewhat spoil the identity of the band's sound. Without these, Muzak's "In Case of Loss Please Return To" would've still lasted for over 50 minutes and been excellent in every respect. Anyway, I highly recommend this album - please only note that it is not for someone in a hurry, as much of it is too esoteric to be generally accessible. (с) http://www.progressor.net/review/muzak_2006.html

Состав

Giuseppe Calignano - bass, guitar; melodica; glockenspiel; vocals
Enrico Russo - el. & ac. pianos, keyboards; vocals
Alberto Piccini - el. & ac. guitars; vocals
Gigi Calabro - drums; vocals


[torrentc.info]_t_5562994.torrent
Торрент: Зарегистрирован ·  [ 2018-05-19 23:11 ] ·  fcabf218a1c77b7d6cd335baca32ceb934813eee

17 KB

Статус: проверено
Скачан: 0 раз
Размер: 416 MB
Оценка: 
(Голосов: 0)
Сказали спасибо: 0  Спасибо
Похожие темы
[Профиль]    [ЛС]
Показать сообщения:    
Ответить на тему

Текущее время: Сегодня 07:45

Часовой пояс: GMT + 7



Вы не можете начинать темы
Вы не можете отвечать на сообщения
Вы не можете редактировать свои сообщения
Вы не можете удалять свои сообщения
Вы не можете голосовать в опросах
Вы не можете прикреплять файлы к сообщениям
Вы можете скачивать файлы