(Neo-Prog/Pop Rock) [WEB] Marco Maggiore - PassWords - 2014, FLAC (tracks), lossless

Ответить на тему
Статистика раздачи [Обновить пиров]
Размер:  274 MB   |    Зарегистрирован:  4 месяца 29 дней   |    Скачан:  0 раз

Полного источника не было: Никогда

 
   
 
 
 
Автор Сообщение

torrentc.info

Создавать темы 19-Май-2018 23:14

[Цитировать]

Marco Maggiore / PassWords
Жанр: Neo-Prog/Pop Rock
Носитель: WEB
Год издания: 2014
Страна исполнителя (группы): Italy
Аудиокодек: FLAC (*.flac)
Тип рипа: tracks
Битрейт аудио: lossless
Продолжительность: 42:00
Источник (релизер): Bandcamp
Наличие сканов в содержимом раздачи: нет

01. Falling Down On Me [00:05:33]
02. Little Boy [00:04:24]
03. Shining Boy [00:05:18]
04. When My Love Is Safe (Feat. Michael Manring) [00:04:59]
05. Pink Moon [00:03:54]
06. Elevation [00:04:37]
07. Starship Groover [00:06:32]
08. Rising Sun [00:06:39]
Released January 20, 2014
MARCO MAGGIORE - "Falling Down On Me Live"--

Состав

Marco Maggiore - Vocals, Drums, Piano, Percussions, Synths, Programming, Rumors
Fabio Beltramini - Guitars, Trumpet, Synths
Andrea Fossella - Bass
Featuring:
Danilo Mazzone - Piano
Paolo Donnarumma - Bass
Special Guest:
Michael Manring - Hyperbass

Лог проверки качества

-----------------------
DON'T MODIFY THIS FILE
-----------------------
PERFORMER: auCDtect Task Manager, ver. 1.6.0 RC1 build 1.6.0.1Copyright (c) 2008-2010 y-soft. All rights reservedhttp://y-soft.org
ANALYZER: auCDtect: CD records authenticity detector, version 0.8.2Copyright (c) 2004 Oleg Berngardt. All rights reserved.Copyright (c) 2004 Alexander Djourik. All rights reserved.
FILE: Marco Maggiore - -PassWords- - 08 Rising Sun.flac Size: 43877847 Hash: 62DCAC06AB72F1AAF2CA808F8A8B03A7 Accuracy: -m0 Conclusion: CDDA 100% Signature: 4AE3F87294FAE8BAAFBF9D2C496F2AC597C2BAEFFILE: Marco Maggiore - -PassWords- - 07 Starship Groover.flac Size: 42753631 Hash: 772D3EBA61336615C089F03A1E7A2312 Accuracy: -m0 Conclusion: CDDA 99% Signature: FF80AAB84EDCFBF957A2135BDC9E59F77661DB65FILE: Marco Maggiore - -PassWords- - 06 Elevation.flac Size: 35540017 Hash: F6301A9C85A835A895DFA9C6A0F33C60 Accuracy: -m0 Conclusion: CDDA 100% Signature: 60357DD6A777DE2D292F305F1DA110D90603AAAEFILE: Marco Maggiore - -PassWords- - 05 Pink Moon.flac Size: 24847974 Hash: F91623D224F8EE8483F4216CEB469900 Accuracy: -m0 Conclusion: CDDA 100% Signature: AEA885895F4D3091ABF779036835D2DCA2EBDCDFFILE: Marco Maggiore - -PassWords- - 04 When My Love Is Safe (Feat. Michael Manring).flac Size: 32374935 Hash: 85DCDBE05D48EE33D62259E84FEA09E4 Accuracy: -m0 Conclusion: CDDA 100% Signature: 68117354B2E80C8197B8E55146C93B863959B14DFILE: Marco Maggiore - -PassWords- - 03 Shining Boy.flac Size: 37070366 Hash: 7F1771DD5A9EF477A295C14C034A1C67 Accuracy: -m0 Conclusion: CDDA 100% Signature: 2F93F4A38A06D20410E6059B44D4FF699928011CFILE: Marco Maggiore - -PassWords- - 02 Little Boy.flac Size: 31598767 Hash: 9DE5B7A684C48B389E866F961CD49684 Accuracy: -m0 Conclusion: CDDA 100% Signature: A277476B82B45F6A6EC28DFF714B10B9FABE7AB1FILE: Marco Maggiore - -PassWords- - 01 Falling Down On Me.flac Size: 37883412 Hash: C5D4B4D6FEEB723B9643B4D012FAC922 Accuracy: -m0 Conclusion: CDDA 100% Signature: 7D82A33EE5E0EB1315EC68B12A29B1A344CF4D4C

DRM log

foobar2000 1.3.12 / Dynamic Range Meter 1.1.1log date: 2018-05-18 07:58:18
--------------------------------------------------------------------------------Analyzed: Marco Maggiore / "PassWords"--------------------------------------------------------------------------------
DR Peak RMS Duration Track--------------------------------------------------------------------------------DR7 -0.10 dB -10.30 dB 5:34 01-Falling Down On MeDR7 -0.10 dB -8.19 dB 4:25 02-Little BoyDR8 -0.10 dB -10.18 dB 5:19 03-Shining BoyDR8 -0.10 dB -10.34 dB 4:59 04-When My Love Is Safe (Feat. Michael Manring)DR7 -0.10 dB -9.54 dB 3:55 05-Pink MoonDR7 -0.10 dB -9.39 dB 4:38 06-ElevationDR10 -0.10 dB -12.73 dB 6:32 07-Starship GrooverDR7 -0.10 dB -10.79 dB 6:39 08-Rising Sun--------------------------------------------------------------------------------
Number of tracks: 8Official DR value: DR8
Samplerate: 44100 HzChannels: 2Bits per sample: 16Bitrate: 878 kbpsCodec: FLAC================================================================================
--


[torrentc.info]_t_5563241.torrent
Торрент: Зарегистрирован ·  [ 2018-05-19 23:11 ] ·  200201cd09ca18e457de20d5e05cd310b4ddc4e7

12 KB

Статус: проверено
Скачан: 0 раз
Размер: 274 MB
Оценка: 
(Голосов: 0)
Сказали спасибо: 0  Спасибо
Похожие темы
[Профиль]    [ЛС]
Показать сообщения:    
Ответить на тему

Текущее время: Сегодня 01:22

Часовой пояс: GMT + 7



Вы не можете начинать темы
Вы не можете отвечать на сообщения
Вы не можете редактировать свои сообщения
Вы не можете удалять свои сообщения
Вы не можете голосовать в опросах
Вы не можете прикреплять файлы к сообщениям
Вы можете скачивать файлы