(Symphonic Prog) [CD] L\'Albero Del Veleno - Tale Of A Dark Fate - 2017, FLAC (tracks+.cue), lossless

Ответить на тему
Статистика раздачи [Обновить пиров]
Размер:  429 MB   |    Зарегистрирован:  4 месяца 29 дней   |    Скачан:  0 раз

Полного источника не было: Никогда

 
   
 
 
 
Автор Сообщение

torrentc.info

Создавать темы 19-Май-2018 23:14

[Цитировать]

L'Albero Del Veleno - Tale Of A Dark Fate
[img=right]https://d.radikal.ru/d42/1805/db/feae63021106.jpg[/img]
Жанр: Symphonic Prog
Носитель: CD
Год выхода диска: 2017
Страна: Italy
Производитель диска: Black Widow Records / BWRDIST 674
Аудио кодек: FLAC
Тип рипа: tracks+.cue
Битрейт аудио: lossless
Продолжительность: 44:04
Наличие сканов в содержимом раздачи:
Трэклист:
01. Prelude - The Poison Tree (1:20)
• ACT I (Hypnos)
02. Morpheus (6:14)
03. Phobetor (3:18)
04. Interlude I - Momus (1:22)
05. Phantasos (5:50)
06. Interval (0:14)
• ACT II (Thanatos)
07. Clotho (7:09)
08. Lachesis (4:08)
09. Interlude II - Ananke (3:48)
10. Atropos (5:37)
11. Postlude - Moros (4:55)
Состав:
- Lorenzo Picchi / guitars
- Nadin Petricelli / keyboards, synth
- Marco Brenzini / flute
- Jacopo Ciani / violin, viola, strings
- Michele Andreuccetti / bass
- Claudio Miniati / drums
With:
- Cesare Valentini / choir arrangements
Доп. информация: http://www.progarchives.com/artist.asp?id=8385

Отчёт EAC

Exact Audio Copy V1.0 beta 3 from 29. August 2011
EAC extraction logfile from 12. May 2018, 11:31
L'Albero Del Veleno / Tale Of A Dark Fate
Used drive : MATSHITADVD+-RW UJ8E2 Adapter: 0 ID: 0
Read mode : SecureUtilize accurate stream : YesDefeat audio cache : YesMake use of C2 pointers : No
Read offset correction : 103Overread into Lead-In and Lead-Out : NoFill up missing offset samples with silence : YesDelete leading and trailing silent blocks : NoNull samples used in CRC calculations : YesUsed interface : Native Win32 interface for Win NT & 2000Gap handling : Appended to previous track
Used output format : User Defined EncoderSelected bitrate : 768 kBit/sQuality : HighAdd ID3 tag : NoCommand line compressor : C:\Program Files (x86)\Exact Audio Copy\FLAC\FLAC.EXEAdditional command line options : -8 -V -T "ARTIST=%artist%" -T "TITLE=%title%" -T "ALBUM=%albumtitle%" -T "DATE=%year%" -T "TRACKNUMBER=%tracknr%" -T "TOTALTRACKS=%numtracks%" -T "GENRE=%genre%" -T "ALBUMARTIST=%albumartist%" -T "ALBUM ARTIST=%albumartist%" -T "COMMENT=EAC Secure Mode, Test & Copy, AccurateRip, FLAC -8" %source%
TOC of the extracted CD
Track | Start | Length | Start sector | End sector --------------------------------------------------------- 1 | 0:00.00 | 1:20.37 | 0 | 6036 2 | 1:20.37 | 6:15.00 | 6037 | 34161 3 | 7:35.37 | 3:18.37 | 34162 | 49048 4 | 10:53.74 | 1:23.00 | 49049 | 55273 5 | 12:16.74 | 5:51.00 | 55274 | 81598 6 | 18:07.74 | 0:15.00 | 81599 | 82723 7 | 18:22.74 | 7:10.00 | 82724 | 114973 8 | 25:32.74 | 4:09.00 | 114974 | 133648 9 | 29:41.74 | 3:48.37 | 133649 | 150785 10 | 33:30.36 | 5:38.00 | 150786 | 176135 11 | 39:08.36 | 4:56.38 | 176136 | 198373
Track 1
Filename C:\bzp01\L'Albero Del Veleno - Tale Of A Dark Fate (2017) [FLAC] {BWRDIST-674}\01 - Prelude - The Poison Tree.wav
Pre-gap length 0:00:02.00
Peak level 96.3 % Extraction speed 1.8 X Track quality 100.0 % Test CRC D407EA09 Copy CRC D407EA09 Track not present in AccurateRip database Copy OK
Track 2
Filename C:\bzp01\L'Albero Del Veleno - Tale Of A Dark Fate (2017) [FLAC] {BWRDIST-674}\02 - Morpheus.wav
Peak level 96.3 % Extraction speed 2.8 X Track quality 100.0 % Test CRC 42784FF6 Copy CRC 42784FF6 Track not present in AccurateRip database Copy OK
Track 3
Filename C:\bzp01\L'Albero Del Veleno - Tale Of A Dark Fate (2017) [FLAC] {BWRDIST-674}\03 - Phobetor.wav
Peak level 96.3 % Extraction speed 2.9 X Track quality 100.0 % Test CRC AA7A2653 Copy CRC AA7A2653 Track not present in AccurateRip database Copy OK
Track 4
Filename C:\bzp01\L'Albero Del Veleno - Tale Of A Dark Fate (2017) [FLAC] {BWRDIST-674}\04 - Interlude I - Momus.wav
Peak level 96.0 % Extraction speed 1.4 X Track quality 99.8 % Test CRC 5D27DE99 Copy CRC 5D27DE99 Track not present in AccurateRip database Copy OK
Track 5
Filename C:\bzp01\L'Albero Del Veleno - Tale Of A Dark Fate (2017) [FLAC] {BWRDIST-674}\05 - Phantasos.wav
Peak level 96.3 % Extraction speed 3.4 X Track quality 100.0 % Test CRC BDCF0C92 Copy CRC BDCF0C92 Track not present in AccurateRip database Copy OK
Track 6
Filename C:\bzp01\L'Albero Del Veleno - Tale Of A Dark Fate (2017) [FLAC] {BWRDIST-674}\06 - Interval.wav
Peak level 0.0 % Extraction speed 1.0 X Track quality 100.0 % Test CRC ACB3FCBC Copy CRC ACB3FCBC Track not present in AccurateRip database Copy OK
Track 7
Filename C:\bzp01\L'Albero Del Veleno - Tale Of A Dark Fate (2017) [FLAC] {BWRDIST-674}\07 - Clotho.wav
Peak level 96.4 % Extraction speed 3.8 X Track quality 100.0 % Test CRC 28A19EDE Copy CRC 28A19EDE Track not present in AccurateRip database Copy OK
Track 8
Filename C:\bzp01\L'Albero Del Veleno - Tale Of A Dark Fate (2017) [FLAC] {BWRDIST-674}\08 - Lachesis.wav
Peak level 96.3 % Extraction speed 2.9 X Track quality 99.9 % Test CRC 4DEF3C7D Copy CRC 4DEF3C7D Track not present in AccurateRip database Copy OK
Track 9
Filename C:\bzp01\L'Albero Del Veleno - Tale Of A Dark Fate (2017) [FLAC] {BWRDIST-674}\09 - Interlude II - Ananke.wav
Peak level 73.1 % Extraction speed 4.0 X Track quality 100.0 % Test CRC EF7671ED Copy CRC EF7671ED Track not present in AccurateRip database Copy OK
Track 10
Filename C:\bzp01\L'Albero Del Veleno - Tale Of A Dark Fate (2017) [FLAC] {BWRDIST-674}\10 - Atropos.wav
Peak level 96.3 % Extraction speed 3.5 X Track quality 99.9 % Test CRC A1372933 Copy CRC A1372933 Track not present in AccurateRip database Copy OK
Track 11
Filename C:\bzp01\L'Albero Del Veleno - Tale Of A Dark Fate (2017) [FLAC] {BWRDIST-674}\11 - Postlude - Moros.wav
Peak level 96.1 % Extraction speed 3.5 X Track quality 99.9 % Test CRC C8883576 Copy CRC C8883576 Track not present in AccurateRip database Copy OK
None of the tracks are present in the AccurateRip database
No errors occurred
End of status report
==== Log checksum E842C560CE922DB16FB90E69CABE4F88AC5541DED4324D5CA9664872D3B840D3 ====

.cue

REM GENRE "Progressive Rock"REM DATE 2017REM DISCID 850A540BREM COMMENT "ExactAudioCopy v1.0b3"PERFORMER "L'Albero Del Veleno"TITLE "Tale Of A Dark Fate"FILE "01 - Prelude - The Poison Tree.wav" WAVE TRACK 01 AUDIO TITLE "Prelude - The Poison Tree" PERFORMER "L'Albero Del Veleno" INDEX 01 00:00:00FILE "02 - Morpheus.wav" WAVE TRACK 02 AUDIO TITLE "Morpheus" PERFORMER "L'Albero Del Veleno" INDEX 01 00:00:00FILE "03 - Phobetor.wav" WAVE TRACK 03 AUDIO TITLE "Phobetor" PERFORMER "L'Albero Del Veleno" INDEX 01 00:00:00FILE "04 - Interlude I - Momus.wav" WAVE TRACK 04 AUDIO TITLE "Interlude I - Momus" PERFORMER "L'Albero Del Veleno" INDEX 01 00:00:00FILE "05 - Phantasos.wav" WAVE TRACK 05 AUDIO TITLE "Phantasos" PERFORMER "L'Albero Del Veleno" INDEX 01 00:00:00FILE "06 - Interval.wav" WAVE TRACK 06 AUDIO TITLE "Interval" PERFORMER "L'Albero Del Veleno" INDEX 01 00:00:00FILE "07 - Clotho.wav" WAVE TRACK 07 AUDIO TITLE "Clotho" PERFORMER "L'Albero Del Veleno" INDEX 01 00:00:00FILE "08 - Lachesis.wav" WAVE TRACK 08 AUDIO TITLE "Lachesis" PERFORMER "L'Albero Del Veleno" INDEX 01 00:00:00FILE "09 - Interlude II - Ananke.wav" WAVE TRACK 09 AUDIO TITLE "Interlude II - Ananke" PERFORMER "L'Albero Del Veleno" INDEX 01 00:00:00FILE "10 - Atropos.wav" WAVE TRACK 10 AUDIO TITLE "Atropos" PERFORMER "L'Albero Del Veleno" INDEX 01 00:00:00FILE "11 - Postlude - Moros.wav" WAVE TRACK 11 AUDIO TITLE "Postlude - Moros" PERFORMER "L'Albero Del Veleno" INDEX 01 00:00:00

CueTools

[CUETools log; Date: 2018.05.19. 1:14:49; Version: 2.1.6][CTDB TOCID: WdVOKELjoNlv2GGZG6lfoIHWUp0-] found.Track | CTDB Status 1 | (1/1) Accurately ripped 2 | (1/1) Accurately ripped 3 | (1/1) Accurately ripped 4 | (1/1) Accurately ripped 5 | (1/1) Accurately ripped 6 | (1/1) Accurately ripped 7 | (1/1) Accurately ripped 8 | (1/1) Accurately ripped 9 | (1/1) Accurately ripped 10 | (1/1) Accurately ripped 11 | (1/1) Accurately ripped[AccurateRip ID: 0010858c-00928caa-850a540b] disk not present in database.
Track Peak [ CRC32 ] [W/O NULL] [ LOG ] -- 96,4 [D134338E] [02D6F0F0] 01 96,3 [D407EA09] [319D31ED] CRC32 02 96,3 [42784FF6] [54574445] CRC32 03 96,3 [AA7A2653] [8D7B359E] CRC32 04 96,0 [5D27DE99] [2AE90825] CRC32 05 96,3 [BDCF0C92] [668172D7] CRC32 06 0,0 [ACB3FCBC] [2CF772B0] CRC32 07 96,4 [28A19EDE] [8AF414AF] CRC32 08 96,3 [4DEF3C7D] [9F60FD82] CRC32 09 73,1 [EF7671ED] [281C092E] CRC32 10 96,3 [A1372933] [5E3F50D7] CRC32 11 96,1 [C8883576] [297C68E9] CRC32
Источник: Torrentc bzp01


[torrentc.info]_t_5563604.torrent
Торрент: Зарегистрирован ·  [ 2018-05-19 23:11 ] ·  4946c48e7fa54596515ccf205f8dfdce71740d4d

38 KB

Статус: проверено
Скачан: 0 раз
Размер: 429 MB
Оценка: 
(Голосов: 0)
Сказали спасибо: 0  Спасибо
Похожие темы
[Профиль]    [ЛС]
Показать сообщения:    
Ответить на тему

Текущее время: Сегодня 01:34

Часовой пояс: GMT + 7



Вы не можете начинать темы
Вы не можете отвечать на сообщения
Вы не можете редактировать свои сообщения
Вы не можете удалять свои сообщения
Вы не можете голосовать в опросах
Вы не можете прикреплять файлы к сообщениям
Вы можете скачивать файлы