(Pop) [CD] VA - Лучшая 20 Europa Plus (Часть 3) - 2003, FLAC (image+.cue), lossless

Ответить на тему
Статистика раздачи [Обновить пиров]
Размер:  531 MB   |    Зарегистрирован:  5 месяцев 26 дней   |    Скачан:  0 раз

Полного источника не было: Никогда

 
   
 
 
 
Автор Сообщение

torrentc.info

Создавать темы 19-Май-2018 00:14

[Цитировать]

Various Artists - Лучшая 20 Europa Plus (Часть 3)
Жанр: Pop
Носитель: CD
Страна-производитель диска (релиза): Россия
Год издания: 2003
Издатель (лейбл): Disc Master
Номер по каталогу: LD-4391-151
Аудиокодек: FLAC (*.flac)
Тип рипа: image+.cue
Битрейт аудио: lossless
Продолжительность: 01:16:04
Источник (релизер): Диск из личной коллекции
Наличие сканов в содержимом раздачи: да
Треклист:
01. DJ Lhasa - Giulia
02. Лёк... Лёка... Лёкочка - Стреляй
03. Earphones - Primetime Sexcrime
04. Другие Правила - Про тебя
05. Patch - Ping Pong
06. Кристина Орбакайте - Свет твоей любви
07. DJ Bobo - Chihuahua
08. Мария Ржевская - Когда я стану кошкой
09. In Grid - In-Tango
10. Леонид Агутин & Отпетые Мошенники - Граница
11. Ricky Martin - Jaleo
12. Алла Пугачёва - Исчезнет грусть
13. Ladykillaz - Jeanny
14. Сочи - Лето - это миг
15. Madonna - Hollywood
16. Татьяна Буланова - Шар в небо голубое
17. Alizée - I'm Fed Up!
18. Филипп Киркоров - Немного жаль
19. Shania Twain - Ka-Ching!
20. Иван Купала - Пчёлы 2
21. Gregorian - Voyage Voyage

Лог создания рипа

Exact Audio Copy V1.3 from 2. September 2016
Отчёт EAC об извлечении, выполненном 13. мая 2018, 13:14
V/A / Лучшая 20 Europa Plus (Часть 3)
Дисковод: HL-DT-STDVDRAM GT30N Adapter: 1 ID: 0
Режим чтения : ДостоверностьИспользование точного потока : ДаОтключение кэша аудио : ДаИспользование указателей C2 : Нет
Коррекция смещения при чтении : 667Способность читать области Lead-in и Lead-out : НетЗаполнение пропущенных сэмплов тишиной : ДаУдаление блоков с тишиной в начале и конце : НетПри вычислениях CRC использовались нулевые сэмплы : ДаИнтерфейс : Встроенный Win32-интерфейс для Win NT/2000
Выходной формат : Пользовательский кодировщикВыбранный битрейт : 128 kBit/sКачество : ВысокийДобавление ID3-тега : НетУтилита сжатия : C:\Program Files\FLAC\win32\flac.exeДополнительные параметры : -V -8 -T "Date=%year%" -T "Genre=%genre%" %source%
TOC извлечённого CD
Трек | Старт | Длительность | Начальный сектор | Конечный сектор --------------------------------------------------------------------- 1 | 0:00.00 | 3:18.13 | 0 | 14862 2 | 3:18.13 | 3:08.20 | 14863 | 28982 3 | 6:26.33 | 2:52.37 | 28983 | 41919 4 | 9:18.70 | 3:14.37 | 41920 | 56506 5 | 12:33.32 | 3:50.40 | 56507 | 73796 6 | 16:23.72 | 3:31.25 | 73797 | 89646 7 | 19:55.22 | 3:02.45 | 89647 | 103341 8 | 22:57.67 | 3:26.65 | 103342 | 118856 9 | 26:24.57 | 3:25.05 | 118857 | 134236 10 | 29:49.62 | 3:56.47 | 134237 | 151983 11 | 33:46.34 | 3:39.29 | 151984 | 168437 12 | 37:25.63 | 3:40.17 | 168438 | 184954 13 | 41:06.05 | 3:14.29 | 184955 | 199533 14 | 44:20.34 | 3:38.25 | 199534 | 215908 15 | 47:58.59 | 4:25.09 | 215909 | 235792 16 | 52:23.68 | 4:28.25 | 235793 | 255917 17 | 56:52.18 | 4:00.31 | 255918 | 273948 18 | 60:52.49 | 4:07.60 | 273949 | 292533 19 | 65:00.34 | 3:22.58 | 292534 | 307741 20 | 68:23.17 | 3:50.31 | 307742 | 325022 21 | 72:13.48 | 3:51.21 | 325023 | 342368
Характеристики диапазона извлечения и сообщения об ошибках
Выбранный диапазон
Имя файла C:\Documents and Settings\Калибар\Рабочий стол\V.A. - Лучшая 20 Europa Plus (Часть 3).wav
Пиковый уровень 100.0 % Скорость извлечения 2.2 X Качество диапазона 100.0 % CRC теста 9B2DF2D1 CRC копии 9B2DF2D1 Копирование... OK
Ошибок не произошло
Конец отчёта
==== Контрольная сумма отчёта BE61EE38040116099E22BD89A5905514923A54F6207E11B8376C8C72057054BA ====

Содержание индексной карты (.CUE)

REM GENRE PopREM DATE 2003REM DISCID 3911D415REM COMMENT "ExactAudioCopy v1.3"PERFORMER "V/A"TITLE "Лучшая 20 Europa Plus (Часть 3)"REM COMPOSER ""FILE "Audio.flac" WAVE TRACK 01 AUDIO TITLE "Giulia" PERFORMER "DJ Lhasa" REM COMPOSER "" FLAGS DCP INDEX 01 00:00:00 TRACK 02 AUDIO TITLE "Стреляй" PERFORMER "Лёк... Лёка... Лёкочка" REM COMPOSER "" FLAGS DCP INDEX 00 03:16:13 INDEX 01 03:18:13 TRACK 03 AUDIO TITLE "Primetime Sexcrime" PERFORMER "Earphones" REM COMPOSER "" FLAGS DCP INDEX 00 06:24:33 INDEX 01 06:26:33 TRACK 04 AUDIO TITLE "Про тебя" PERFORMER "Другие Правила" REM COMPOSER "" FLAGS DCP INDEX 00 09:16:70 INDEX 01 09:18:70 TRACK 05 AUDIO TITLE "Ping Pong" PERFORMER "Patch" REM COMPOSER "" FLAGS DCP INDEX 00 12:31:32 INDEX 01 12:33:32 TRACK 06 AUDIO TITLE "Свет твоей любви" PERFORMER "Кристина Орбакайте" REM COMPOSER "" FLAGS DCP INDEX 00 16:21:72 INDEX 01 16:23:72 TRACK 07 AUDIO TITLE "Chihuahua" PERFORMER "DJ Bobo" REM COMPOSER "" FLAGS DCP INDEX 00 19:53:22 INDEX 01 19:55:22 TRACK 08 AUDIO TITLE "Когда я стану кошкой" PERFORMER "Мария Ржевская" REM COMPOSER "" FLAGS DCP INDEX 00 22:55:67 INDEX 01 22:57:67 TRACK 09 AUDIO TITLE "In-Tango" PERFORMER "In Grid" REM COMPOSER "" FLAGS DCP INDEX 00 26:22:57 INDEX 01 26:24:57 TRACK 10 AUDIO TITLE "Граница" PERFORMER "Леонид Агутин & Отпетые Мошенники" REM COMPOSER "" FLAGS DCP INDEX 00 29:47:62 INDEX 01 29:49:62 TRACK 11 AUDIO TITLE "Jaleo" PERFORMER "Ricky Martin" REM COMPOSER "" FLAGS DCP INDEX 00 33:44:34 INDEX 01 33:46:34 TRACK 12 AUDIO TITLE "Исчезнет грусть" PERFORMER "Алла Пугачёва" REM COMPOSER "" FLAGS DCP INDEX 00 37:23:63 INDEX 01 37:25:63 TRACK 13 AUDIO TITLE "Jeanny" PERFORMER "Ladykillaz" REM COMPOSER "" FLAGS DCP INDEX 00 41:04:05 INDEX 01 41:06:05 TRACK 14 AUDIO TITLE "Лето - это миг" PERFORMER "Сочи" REM COMPOSER "" FLAGS DCP INDEX 00 44:18:34 INDEX 01 44:20:34 TRACK 15 AUDIO TITLE "Hollywood" PERFORMER "Madonna" REM COMPOSER "" FLAGS DCP INDEX 00 47:56:59 INDEX 01 47:58:59 TRACK 16 AUDIO TITLE "Шар в небо голубое" PERFORMER "Татьяна Буланова" REM COMPOSER "" FLAGS DCP INDEX 00 52:21:68 INDEX 01 52:23:68 TRACK 17 AUDIO TITLE "I'm Fed Up!" PERFORMER "Alizee" REM COMPOSER "" FLAGS DCP INDEX 00 56:50:18 INDEX 01 56:52:18 TRACK 18 AUDIO TITLE "Немного жаль" PERFORMER "Филипп Киркоров" REM COMPOSER "" FLAGS DCP INDEX 00 60:50:49 INDEX 01 60:52:49 TRACK 19 AUDIO TITLE "Ka-Ching!" PERFORMER "Shania Twain" REM COMPOSER "" FLAGS DCP INDEX 00 64:58:34 INDEX 01 65:00:34 TRACK 20 AUDIO TITLE "Пчёлы 2" PERFORMER "Иван Купала" REM COMPOSER "" FLAGS DCP INDEX 00 68:21:17 INDEX 01 68:23:17 TRACK 21 AUDIO TITLE "Voyage Voyage" PERFORMER "Gregorian" REM COMPOSER "" FLAGS DCP INDEX 00 72:11:48 INDEX 01 72:13:48
Доп. информация: В файле Tracklist.txt - уточнённый список треков (как и в теме раздачи).


[torrentc.info]_t_5561789.torrent
Торрент: Зарегистрирован ·  [ 2018-05-19 00:12 ] ·  4771d5573ec075b9ae24346f96739e9b2473980f

11 KB

Статус: проверено
Скачан: 0 раз
Размер: 531 MB
Оценка: 
(Голосов: 0)
Сказали спасибо: 0  Спасибо
Похожие темы
[Профиль]    [ЛС]
Показать сообщения:    
Ответить на тему

Текущее время: Сегодня 22:56

Часовой пояс: GMT + 7



Вы не можете начинать темы
Вы не можете отвечать на сообщения
Вы не можете редактировать свои сообщения
Вы не можете удалять свои сообщения
Вы не можете голосовать в опросах
Вы не можете прикреплять файлы к сообщениям
Вы можете скачивать файлы