Индейская территория / Indian Territory (Джон Инглиш / John English) [1950, США, вестерн, приключения, DVDRip] VO (Алексей Alassea Крюков) + Sub Rus (Свен Железнов) + Original Eng

Ответить на тему
Статистика раздачи [Обновить пиров]
Размер:  948 MB   |    Зарегистрирован:  4 месяца 30 дней   |    Скачан:  0 раз

Полного источника не было: Никогда

 
   
 
 
 
Автор Сообщение

torrentc.info

Создавать темы 18-Май-2018 10:38

[Цитировать]

Индейская территория / Indian Territory
Страна: США
Студия: Gene Autry Productions
Жанр: вестерн, приключения
Год выхода: 1950
Продолжительность: 01:08:58
Перевод: Одноголосый закадровый - Алексей Alassea Крюков
Субтитры: русские (Свен Железнов)
Оригинальная аудиодорожка: английский
Режиссёр: Джон Инглиш / John English
В ролях: Джин Отри, Чемпион, Гэйл Дэвис, Кирби Грант, Джеймс Гриффит, Филип Ван Зандт, Дж. Пэт Коллинз, Рой Гордон, Пэт Баттрем, Рой Бако ...
Описание: Джин Отри становится чиновником по делам индейцев. Его первейшая забота - отучить их совершать налёты и убийства. С этой целью он приезжает вглубь индейской территории и, обустроившись в городке Апачи Спрингс, берется выяснить кто является подстрекателем беспорядков. Прежде всего, он подозревает своего старого знакомого Апачи Кида, полукровку с запятнанной репутацией.--IMDbКиноПоиск--Фильм переведен и озвучен специально для: 7букв Вестерн / группа Джесси Джеймса
Отдельная благодарность Alassea за предоставленную русскую звуковую дорожку и субтитры
Перевод: Свен Железнов.
Закадровый текст: Алексей Alassea Крюков.
--Сэмпл: http://multi-up.com/1198567
Качество видео: DVDRip
Формат файла: AVI
Видео: XviD, 640x480 (1.33:1), 23.976 fps, 1619 Kbps
Аудио 1: AC3, 48.0 KHz, 2 ch., 192 Kbps, Русский
Аудио 2: MP3, 32.0 KHz, 2 ch., 96 Kbps, Английский

MediaInfo

Общее
Полное имя : Z:\РАЗДАЧИ\Indian Territory (1950)\Indian Territory (1950).avi
Формат файла : AVI
Формат файла/Информация : Audio Video Interleave
Размер файла : 948 Мбайт
Продолжительность : 1 ч. 8 м.
Общий поток : 1921 Кбит/сек
Программа кодирования : VirtualDubMod 1.5.10.3 | www.virtualdub-fr.org || (build 2550/release)
Библиотека кодирования : VirtualDubMod build 2550/release
Видео
Идентификатор : 0
Формат файла : MPEG-4 Visual
Профиль формата : Advanced Simple@L5
Параметр BVOP формата : 1
Параметр QPel формата : Нет
Параметр GMC формата : Без точки перехода
Параметр матрицы формата : Выборочная
Идентификатор кодека : XVID
Идентификатор кодека/Подсказка : XviD
Продолжительность : 1 ч. 8 м.
Битрейт : 1619 Кбит/сек
Ширина : 640 пикселей
Высота : 480 пикселей
Соотношение сторон : 4:3
Частота кадров : 23,976 (24000/1001) кадра/сек
Цветовое пространство : YUV
Субдискретизация насыщенности : 4:2:0
Битовая глубина : 8 бит
Тип развёртки : Прогрессивная
Метод сжатия : С потерями
Бит/(Пиксели*Кадры) : 0.220
Размер потока : 798 Мбайт (84%)
Библиотека кодирования : XviD 1.2.1 (UTC 2008-12-04)
Аудио #1
Идентификатор : 1
Формат файла : AC-3
Формат файла/Информация : Audio Coding 3
Параметр Endianness формата : Big
Идентификатор кодека : 2000
Продолжительность : 1 ч. 8 м.
Вид битрейта : Постоянный
Битрейт : 192 Кбит/сек
Каналы : 2 канала
Расположение каналов : Front: L R
Частота : 48,0 КГц
Частота кадров : 31,250 кадров/сек (1536 spf)
Битовая глубина : 16 бит
Метод сжатия : С потерями
Размер потока : 94,7 Мбайт (10%)
Выравнивание : Разделение по промежуткам
Продолжительность промежутка : 42 мс. (1,00 видеокадр)
Время предзагрузки промежутка : 500 мс.
Язык : English
ServiceKind/String : Complete Main
Аудио #2
Идентификатор : 2
Формат файла : MPEG Audio
Версия формата : Version 1
Профиль формата : Layer 3
Режим : Joint stereo
Расширение режима : MS Stereo
Идентификатор кодека : 55
Идентификатор кодека/Подсказка : MP3
Продолжительность : 1 ч. 8 м.
Вид битрейта : Постоянный
Битрейт : 96,0 Кбит/сек
Каналы : 2 канала
Частота : 32,0 КГц
Метод сжатия : С потерями
Размер потока : 47,4 Мбайт (5%)
Выравнивание : Соединение по промежуткам
Продолжительность промежутка : 42 мс. (1,00 видеокадр)
Время предзагрузки промежутка : 504 мс.
Библиотека кодирования : LAME3.98.2

Фрагмент русских субтитров

11
00:00:50,803 --> 00:00:54,638
В период Реконструкции, который
наступил после войны между...
12
00:00:54,663 --> 00:00:58,827
штатами, солдаты занялись полицейской
работой на землях индейцев.
13
00:00:59,105 --> 00:01:03,005
Концентрация войск на севере против Сиу
оголила защиту Юго-Запада.
14
00:01:05,408 --> 00:01:08,386
Поселения остались на
милость апачей и белых бандитов...
15
00:01:08,411 --> 00:01:11,332
поскольку гражданских
блюстителей порядка было мало.
16
00:01:12,317 --> 00:01:14,353
Чтобы править и обирать
беззащитные земли...
17
00:01:14,378 --> 00:01:16,389
...неразборчивые в методах
белые без смущения...
18
00:01:16,413 --> 00:01:18,211
...использовали племена
индейцев в алчных...
19
00:01:18,236 --> 00:01:21,465
...попытках остановить
приход закона и порядка.
20
00:02:46,001 --> 00:02:47,001
В атаку!
21
00:03:28,602 --> 00:03:29,602
Как ты, Шэдрек?
22
00:03:30,001 --> 00:03:32,068
Получше чем ты, судя по виду.
23
00:03:32,515 --> 00:03:33,515
Сержант Отри, сэр.
24
00:03:34,464 --> 00:03:35,464
Лейтенант Мейсон.
25
00:03:35,843 --> 00:03:38,443
Вы выбрали неудачную дорогу, сержант.
Почему вы здесь один?
26
00:03:39,665 --> 00:03:41,465
Как у тебя с водой, Шэдрек?
27
00:03:41,554 --> 00:03:43,087
У нас с Чемпионом в горле пересохло.
28
00:03:43,617 --> 00:03:45,717
Я по специальному заданию
майора Фарелла, сэр.
29
00:03:46,048 --> 00:03:47,048
Индейцы вооружились?
30
00:03:47,799 --> 00:03:49,532
Вероятно, лишь некоторые из них.


[torrentc.info]_t_5563113.torrent
Торрент: Зарегистрирован ·  [ 2018-05-18 10:38 ] ·  1d625e08c78a1d29b2d6a922f5aa6d9dbd1e7062

19 KB

Статус: проверено
Скачан: 0 раз
Размер: 948 MB
Оценка: 
(Голосов: 0)
Сказали спасибо: 0  Спасибо
Похожие темы
[Профиль]    [ЛС]
Показать сообщения:    
Ответить на тему

Текущее время: Сегодня 08:54

Часовой пояс: GMT + 7



Вы не можете начинать темы
Вы не можете отвечать на сообщения
Вы не можете редактировать свои сообщения
Вы не можете удалять свои сообщения
Вы не можете голосовать в опросах
Вы не можете прикреплять файлы к сообщениям
Вы можете скачивать файлы