Самсон / Samson (Брюс МакДональд / Bruce McDonald, Гэбриел Саблофф / Gabriel Sabloff) [2018, США, ЮАР, боевик, драма, HDRip] MVO (HDrezka Studio)

Ответить на тему
 
Автор Сообщение

torrentc.info

Создавать темы 17-Май-2018 23:05

[Цитировать]

Самсон / Samson
Страна: США, ЮАР
Жанр: боевик, драма
Год выхода: 2018
Продолжительность: 01:49:49-Перевод: Любительский (многоголосый закадровый) | HDrezka Studio
Субтитры: нет
Оригинальная аудиодорожка: нет-Режиссер: Брюс МакДональд / Bruce McDonald, Гэбриел Саблофф / Gabriel Sabloff-В ролях: Джексон Рэтбоун, Билли Зейн, Тейлор Джеймс, Рутгер Хауэр, Кэйтлин Лихи, Линдсей Вагнер, Фрэнсис Шолто-Дуглас, Грег Крик, Арес Афонсу, Рехане Абрахамс-Описание: История жизни легендарного библейского героя Самсона, прославившегося своей необыкновенной силой и враждой с филистимлянами, древним народом, поработившим его соотечественников. Выросший в рабских условиях, он впоследствии доставил множество неприятностей своим поработителям, вызывая ужас одним только упоминанием собственного имени. И лишь предательство коварной искусительницы позволило взять верх над столь могущественным человеком, способным своими руками убить тысячу неприятелей.-Качество видео: HDRip
Формат файла: AVI
Видео: 720x304 (2.37:1), 23.976 fps, XviD build 73 ~1702 kbps avg, 0.32 bit/pixel
Аудио: 48 kHz, AC3 Dolby Digital, 2/0 (L,R) ch, ~192 kbps-Сэмпл-

MediaInfo

Format                      : AVI
Format/Info                 : Audio Video Interleave
File size                   : 1.46 GiB
Duration                    : 1 h 49 min
Overall bit rate            : 1 904 kb/s
Writing application         : VirtualDubMod 1.5.10.3 | www.virtualdub-fr.org || (build 2550/release)
Writing library             : VirtualDubMod build 2550/release
Video
ID                          : 0
Format                      : MPEG-4 Visual
Format profile              : Advanced Simple@L5
Format settings             : BVOP1 / Custom Matrix
Format settings, BVOP       : 1
Format settings, QPel       : No
Format settings, GMC        : No warppoints
Format settings, Matrix     : Custom
Codec ID                    : XVID
Codec ID/Hint               : XviD
Duration                    : 1 h 49 min
Bit rate                    : 1 703 kb/s
Width                       : 720 pixels
Height                      : 304 pixels
Display aspect ratio        : 2.35:1
Frame rate                  : 23.976 (24000/1001) FPS
Color space                 : YUV
Chroma subsampling          : 4:2:0
Bit depth                   : 8 bits
Scan type                   : Progressive
Compression mode            : Lossy
Bits/(Pixel*Frame)          : 0.324
Stream size                 : 1.31 GiB (89%)
Writing library             : XviD 73
Audio
ID                          : 1
Format                      : AC-3
Format/Info                 : Audio Coding 3
Codec ID                    : 2000
Duration                    : 1 h 49 min
Bit rate mode               : Constant
Bit rate                    : 192 kb/s
Channel(s)                  : 2 channels
Channel positions           : Front: L R
Sampling rate               : 48.0 kHz
Frame rate                  : 31.250 FPS (1536 SPF)
Bit depth                   : 16 bits
Compression mode            : Lossy
Stream size                 : 151 MiB (10%)
Alignment                   : Split accross interleaves
Interleave, duration        : 42  ms (1.00 video frame)
Interleave, preload duratio : 500  ms
Service kind                : Complete Main

Скриншоты

При появлении проф. озвучки, перезалью.
[Профиль]    [ЛС]
Показать сообщения:    
Ответить на тему

Текущее время: Сегодня 06:37

Часовой пояс: GMT + 7



Вы не можете начинать темы
Вы не можете отвечать на сообщения
Вы не можете редактировать свои сообщения
Вы не можете удалять свои сообщения
Вы не можете голосовать в опросах
Вы не можете прикреплять файлы к сообщениям
Вы не можете скачивать файлы