Старушка Жизнь vs Старушка Смерть (А. Бахурин, К. Милославская, Н. Грофпель, И. Максимов, Е. Надточей, М. Якушина, И. Мельников, А. Мефодин) [2018, Беларусь, Россия, авторская анимация, WEBRip-AVC]

Ответить на тему
Статистика раздачи [Обновить пиров]
Размер:  98 MB   |    Зарегистрирован:  5 месяцев 4 дня   |    Скачан:  1 раз

Полного источника не было: 2 месяца 9 дней

 
   
 
 
 
Автор Сообщение

torrentc.info

Создавать темы 16-Май-2018 23:06

[Цитировать]

[img=right]https://a.radikal.ru/a43/1805/f2/63b607307955.jpg[/img]
Старушка Жизнь vs Старушка Смерть
Страна: Беларусь, Россия
Жанр: авторская анимация
Год выхода: 2018
Продолжительность: 00:07:17
Перевод: не требуется
Субтитры: нет
Режиссёры: Андрей Бахурин, Катя Милославская, Наталья Грофпель, Игорь Мельников, Евгений Надточей, Мария Якушина, Иван Максимов, Ашот Мефодин
Описание: Мульт-альманах из коротких сюжетов по самодеятельным интернет-стишкам о жизни и смерти.
Доп. информация: Специальный приз жюри "за свободу выражения и непобедимый оптимизм" - Суздальский Фестиваль анимации (2018)
Качество видео: WEBRip-AVC
Формат файла: MP4
Видео: 1691 kbps, 1280х720 (16:9), 25.000 fps, AVC (High@L3.2)
Аудио: 192 kbps, 44.1 kHz, 2 channels, AAC (LC)

MediaInfo

GeneralComplete name : Старушка Жизнь vs Старушка Смерть (2018).mp4Format : MPEG-4Format profile : Base Media / Version 2Codec ID : mp42File size : 98.3 MiBDuration : 7mn 17sOverall bit rate mode : VariableOverall bit rate : 1 886 KbpsEncoded date : UTC 2018-04-20 19:15:17Tagged date : UTC 2018-04-20 19:15:17gsst : 0gstd : 437185
VideoID : 1Format : AVCFormat/Info : Advanced Video CodecFormat profile : High@L3.1Format settings, CABAC : YesFormat settings, ReFrames : 1 frameCodec ID : avc1Codec ID/Info : Advanced Video CodingDuration : 7mn 17sBit rate : 1 691 KbpsWidth : 1 280 pixelsHeight : 720 pixelsDisplay aspect ratio : 16:9Frame rate mode : ConstantFrame rate : 25.000 fpsColor space : YUVChroma subsampling : 4:2:0Bit depth : 8 bitsScan type : ProgressiveBits/(Pixel*Frame) : 0.073Stream size : 88.1 MiB (90%)Title : ISO Media file produced by Google Inc. Created on: 04/20/2018.Encoded date : UTC 2018-04-20 19:15:17Tagged date : UTC 2018-04-20 19:15:17Color primaries : BT.709Transfer characteristics : BT.709Matrix coefficients : BT.709
AudioID : 2Format : AACFormat/Info : Advanced Audio CodecFormat profile : LCCodec ID : 40Duration : 7mn 17sBit rate mode : VariableBit rate : 192 KbpsChannel(s) : 2 channelsChannel positions : Front: L RSampling rate : 44.1 KHzCompression mode : LossyStream size : 10.0 MiB (10%)Title : ISO Media file produced by Google Inc. Created on: 04/20/2018.Encoded date : UTC 2018-04-20 19:15:17Tagged date : UTC 2018-04-20 19:15:17

Скриншот c названием фильма

[img]https://a.radikal.ru/a20/1805/ec/3741a45c4d8bt.jpg[/img]


[torrentc.info]_t_5559919.torrent
Торрент: Зарегистрирован ·  [ 2018-05-16 23:06 ] ·  460bdbffbbb4a2288644821476747b01eb9bcc08

16 KB

Статус: проверено
Скачан: 1 раз
Размер: 98 MB
Оценка: 
(Голосов: 0)
Сказали спасибо: 0  Спасибо
Похожие темы
[Профиль]    [ЛС]
Показать сообщения:    
Ответить на тему

Текущее время: Сегодня 00:10

Часовой пояс: GMT + 7



Вы не можете начинать темы
Вы не можете отвечать на сообщения
Вы не можете редактировать свои сообщения
Вы не можете удалять свои сообщения
Вы не можете голосовать в опросах
Вы не можете прикреплять файлы к сообщениям
Вы можете скачивать файлы