Топ-модель по-американски / America\'s Next Top Model / Сезон: 24 / Серии: 1-5 из 15 (Тони Кролл, Клаудия Фрэнк, Боб Шермерхорн) [2018, США, Реалити-шоу, WEBRip] MVO (Jaskier) + Original

Ответить на тему
Статистика раздачи [Обновить пиров]
Размер:  2.8 GB   |    Зарегистрирован:  5 месяцев 6 дней   |    Скачан:  0 раз
Сидеров:  1  [  0 KB/s  ]   Подробная статистика скачивающих
 
   
 
 
 
Автор Сообщение

torrentc.info

Создавать темы 16-Май-2018 23:06

[Цитировать]

Топ-модель по-американски / America's Next Top Model
Год выхода: 2018
Страна: США
Жанр: Драма
Продолжительность: ~ 00:45:00-Перевод: Профессиональный (многоголосый закадровый) | Jaskier-Режиссёр: Тони Кролл, Клаудия Фрэнк, Боб Шермерхорн-В ролях:Тайра Бэнкс, Келли Катрон-Описание: Новый сезон культового реалити, который стал сенсацией в Америке! Новые, юные, харизматичные девушки и парни под пристальными взглядами Тайры Бэнкс.-
Качество: WEBRip
Формат файла: AVI
Видео: XviD, ~ 1500 kbps, 720x400 (16:9), 23.976 fps
Аудио 1: MP3, 48,0 КГц, 2 ch, 128 kbps - Rus
Аудио 2: MP3, 48,0 КГц, 2 ch, 128 kbps - Eng
Субтитры: отсутствуют-Реклама: Присутствует звуковая (два раза в начале и конце по 10 сек.)-[url=tracker.php?f=1982,24,939&nm=Americas%20Next%20Top%20Model]Ссылка на предыдущие и альтернативные раздачи[/url]
[spoiler="MediaInfo">

"]Переведено и озвучено: студией Jaskier[spoiler="MediaInfo

Общее
Полное имя                               : F:\Jaskier\Americas.Next.Top.Model Season 24 (WEBRip l 400p l Jaskier)\Americas.Next.Top.Model.S24.WEBRip.Jaskier.avi
Формат файла                                   : AVI
Формат файла/Информация                        : Audio Video Interleave
Размер файла                             : 524 Мбайт
Продолжительность                        : 41 м. 23 с.
Общий поток                              : 1769 Кбит/сек
Программа кодирования                    : VirtualDubMod 1.5.10.3 | www.virtualdub-fr.org || (build 2550/release)
Библиотека кодирования                   : VirtualDubMod build 2550/release
Видео
Идентификатор                            : 0
Формат файла                                   : MPEG-4 Visual
Профиль формата                          : Advanced Simple@L5
Настройки формата                        : BVOP2
Параметр BVOP формата                    : 2
Параметр QPel формата                    : Нет
Параметр GMC формата                     : Без точки перехода
Параметр матрицы формата                 : Default (MPEG)
Идентификатор кодека                     : XVID
Идентификатор кодека/Подсказка           : XviD
Продолжительность                        : 41 м. 23 с.
Битрейт                                  : 1499 Кбит/сек
Ширина                                   : 720 пикселей
Высота                                   : 400 пикселей
Соотношение сторон                       : 16:9
Частота кадров                           : 23,976 (24000/1001) кадра/сек
Цветовое пространство                    : YUV
Субдискретизация насыщенности            : 4:2:0
Битовая глубина                          : 8 бит
Тип развёртки                            : Прогрессивная
Метод сжатия                             : С потерями
Бит/(Пиксели*Кадры)                      : 0.217
Размер потока                            : 444 Мбайт (85%)
Библиотека кодирования                   : XviD 1.2.1 (UTC 2008-12-04)
Аудио #1
Идентификатор                            : 1
Формат файла                                   : MPEG Audio
Версия формата                           : Version 1
Профиль формата                          : Layer 3
Настройки формата                        : Joint stereo / MS Stereo
Идентификатор кодека                     : 55
Идентификатор кодека/Подсказка           : MP3
Продолжительность                        : 41 м. 22 с.
Вид битрейта                             : Постоянный
Битрейт                                  : 128 Кбит/сек
Каналы                                   : 2 канала
Частота                                  : 48,0 КГц
Частота кадров                           : 41,667 кадра/сек (1152 SPF)
Метод сжатия                             : С потерями
Размер потока                            : 37,9 Мбайт (7%)
Выравнивание                             : Соединение по промежуткам
Продолжительность промежутка             : 42  мс. (1,00 видеокадр)
Время предзагрузки промежутка            : 504  мс.
Библиотека кодирования                   : LAME3.100
Настройки программы                      : -m j -V 4 -q 3 -lowpass 17 -b 128
Аудио #2
Идентификатор                            : 2
Формат файла                                   : MPEG Audio
Версия формата                           : Version 1
Профиль формата                          : Layer 3
Настройки формата                        : Joint stereo / MS Stereo
Идентификатор кодека                     : 55
Идентификатор кодека/Подсказка           : MP3
Продолжительность                        : 41 м. 22 с.
Вид битрейта                             : Постоянный
Битрейт                                  : 128 Кбит/сек
Каналы                                   : 2 канала
Частота                                  : 48,0 КГц
Частота кадров                           : 41,667 кадра/сек (1152 SPF)
Метод сжатия                             : С потерями
Размер потока                            : 37,9 Мбайт (7%)
Выравнивание                             : Соединение по промежуткам
Продолжительность промежутка             : 42  мс. (1,00 видеокадр)
Время предзагрузки промежутка            : 504  мс.
Библиотека кодирования                   : LAME3.100
Настройки программы                      : -m j -V 4 -q 3 -lowpass 17 -b 128

Скриншоты

Раздача ведется путем добавления новых серий

Когда раздача ведётся путём добавления новых серий, при каждом добавлении создётся новый торрент. Чтобы начать докачку новой серии, пользователям необходимо сделать следующее:
(1) остановить скачивание,
(2) удалить старый торрент у себя из клиента (старые серии удалять не надо),
(3) скачать новый торрент и запустить его у себя в клиенте вместо старого, при этом указать клиенту путь в старую папку, куда и должно происходить скачивание новых серий.
Ваш клиент при этом должен произвести хеширование (проверку) старой папки (если не производит сам - помогите ему сделать это), и будет докачивать только те серии, которых у вас ещё нет. Старые серии при этом не удаляются, а продолжают раздаваться!
Eсли вы уже удалили старые серии, то предотвратить повторную закачку старых серий можно, отжав галочку в соответсвующих местах при запуске нового торрента. По возможности, желательно не удалять старые серии как можно дольше, чтобы релизёр не столько продолжал раздавать старые серии, а смог сконцентрироваться на новых.
-


[torrentc.info]_t_5555955.torrent
Торрент: Зарегистрирован ·  [ 2018-05-16 23:06 ] ·  e64bf472f39f1ef36085e08a1958f9fc942295e0

15 KB

Статус: проверено
Скачан: 0 раз
Размер: 2.8 GB
Оценка: 
(Голосов: 0)
Сказали спасибо: 0  Спасибо
Похожие темы
[Профиль]    [ЛС]
Показать сообщения:    
Ответить на тему

Текущее время: Сегодня 13:10

Часовой пояс: GMT + 7



Вы не можете начинать темы
Вы не можете отвечать на сообщения
Вы не можете редактировать свои сообщения
Вы не можете удалять свои сообщения
Вы не можете голосовать в опросах
Вы не можете прикреплять файлы к сообщениям
Вы можете скачивать файлы