Капитан Леши / Kapetan Lesi (Жика Митрович / Zivorad \'Zika\' Mitrovic) [1960, Югославия (СФРЮ), военный, драма, DVDRip] Sub Rus + Original SCr

Ответить на тему
Статистика раздачи [Обновить пиров]
Размер:  1.37 GB   |    Зарегистрирован:  6 дней   |    Скачан:  0 раз
Сидеров:  1  [  0 KB/s  ]   Подробная статистика скачивающих
 
   
 
 
 
Автор Сообщение

torrentc.info

Создавать темы 16-Май-2018 23:06

[Цитировать]

Капитан Леши / Kapetan Lesi Страна: Югославия (СФРЮ)
Жанр: военный, драма
Год выхода: 1960
Продолжительность: 01:39:03
Перевод: Субтитры gordana75
Субтитры: русские
Оригинальная аудиодорожка: сербохорватский
Режиссер: Жика Митрович / Zivorad 'Zika' Mitrovic
В ролях: Александар Гаврич, Петре Прличко, Димитар Киостаров, Селма Карловац, Мария Точиноски, Абдуррахман Шала, Душан Тадич, Павле Вуисич, Душан Антониевич, Райнер Пенкерт, Миливойе Попович-Мавид, Борис Бегин, Сабан Гаши, Йован Ранчич, Душан Тадич, Дарко Деменски, Вальтер Брейер, Шани Паласка, Шеват Кена, Ранко Брадич, Драгослав Попович, Ацо Алексов
Описание: Космет, осень 1944 года. Партизанские отряды Тито освободили город Призрен, выбив оттуда немецкие войска и отряды албанских националистов из фашистской, антикоммунистической организации "Балли Комбетар". Но баллисты С немецкими инструкторами ушли в горы, надеюсь там продолжить борьбу против коммунистов. Капитану Рамизу Леши, энтническому албанцу, из корпуса народной обороны Югославии (КНОЮ), командование поручает ликвидировать банду албанских сепаратистов. Капитан Леши приступает к выполнению задания, но дело осложняется тем, что в банде находится его родной брат Ахмет... В это время в Призрене повляются две новые девушки. Одна из них Лола, певица в баре, с сомнительной репутацией и Вида, учитльница музыки из Белграда...
Доп. информация: Спасибо gordana75 за перевод и русские сабы.
Сэмпл: http://multi-up.com/1198446
Качество видео: DVDRip
Формат файла: AVI
Видео: XviD, 704x304 (2.35:1), 25.000 fps, 1782 kbps avg
Аудио: Serbo croatian AC3 Dolby Digital, 48 kHz, 2/0 (L,R) ch, 192.00 kbps avg
Формат файла субтитров: softsub (SRT)

MediaInfo

GeneralComplete name : D:\Kapetan.Lesi.1960\Kapetan.Lesi.1960.DVDRip.Rus.sub.aviFormat : AVIFormat/Info : Audio Video InterleaveFile size : 1.37 GiBDuration : 1 h 39 minOverall bit rate : 1 984 kb/sWriting application : VirtualDubMod 1.5.10.3 | www.virtualdub-fr.org || (build 2550/release)Writing library : VirtualDubMod build 2550/release
VideoID : 0Format : MPEG-4 VisualFormat profile : Advanced Simple@L5Format settings : BVOP1 / Custom MatrixFormat settings, BVOP : 1Format settings, QPel : NoFormat settings, GMC : No warppointsFormat settings, Matrix : CustomCodec ID : XVIDCodec ID/Hint : XviDDuration : 1 h 39 minBit rate : 1 783 kb/sWidth : 704 pixelsHeight : 304 pixelsDisplay aspect ratio : 2.35:1Frame rate : 25.000 FPSColor space : YUVChroma subsampling : 4:2:0Bit depth : 8 bitsScan type : ProgressiveCompression mode : LossyBits/(Pixel*Frame) : 0.333Stream size : 1.23 GiB (90%)Writing library : XviD 73
AudioID : 1Format : AC-3Format/Info : Audio Coding 3Codec ID : 2000Duration : 1 h 39 minBit rate mode : ConstantBit rate : 192 kb/sChannel(s) : 2 channelsChannel positions : Front: L RSampling rate : 48.0 kHzFrame rate : 31.250 FPS (1536 SPF)Bit depth : 16 bitsCompression mode : LossyStream size : 136 MiB (10%)Alignment : Split accross interleavesInterleave, duration : 40 ms (1.00 video frame)Interleave, preload duratio : 500 msService kind : Complete Main

Скриншоты

Фрагмент субтитров

00:00:20,045 --> 00:00:26,259
КАПИТАН ЛЕШИ
2
00:00:27,195 --> 00:00:31,625
АБДУРАХМАН ШАЛА (майор Демир)
МИЛИВОЙЕ ПОПОВИЧ-МАВИД (поручик Имер)
3
00:00:33,842 --> 00:00:35,754
АЛЕКСАНДАР ГАВРИЧ
(капитан Рамиз Леши)
4
00:00:37,427 --> 00:00:39,802
ПЕТРЕ ПРЛИЧКО (Шок)
5
00:00:40,838 --> 00:00:43,615
ДИМИТАР КИОСТАРОВ (Коста)
РАЙНЕР ПЕНКЕРТ (Ахмет)
6
00:00:45,240 --> 00:00:47,886
МАРИЯ ТОЧИНОСКИ (Вида)
7
00:00:49,025 --> 00:00:51,525
СЕЛМА КАРЛОВАЦ (Лола)
8
00:00:52,347 --> 00:00:55,599
Павле Вуисич, Борис Бегин, Сабах Гази
9
00:00:57,053 --> 00:01:01,772
Йован Ранчич, Душан Тадич,
Дарко Деменски, Вальтер Брейер
10
00:01:03,951 --> 00:01:07,732
ДУШАН АНТОНИЕВИЧ (Ятак) и др.
11
00:01:58,416 --> 00:02:00,658
Режиссер ЗИКА МИТРОВИЧ
12
00:02:03,701 --> 00:02:04,232
Осенью 1944 года
шли последние бои
13
00:02:04,474 --> 00:02:06,721
за освобождение Косово и Метохии.
14
00:02:07,715 --> 00:02:11,106
Из моего родного города Призрен нужно
изгнать не только немцев,
15
00:02:11,280 --> 00:02:13,240
но и их приспешников -
банды албанских баллистов.
16
00:02:13,850 --> 00:02:16,375
С атаки на город Призрен
начинается эта история,
17
00:02:16,619 --> 00:02:20,533
главный герой которой я,
Рамиз Леши, называемый капитан Леши.
18
00:02:36,472 --> 00:02:39,134
Прекратить атаку!
- Сигнальную ракету!
19
00:02:39,403 --> 00:02:42,189
Слушаюсь!
- Хорошо оборояют город.
20
00:02:42,987 --> 00:02:46,600
Здесь останемся на весь месяц, если нам
не пришлют в помощь самолеты и артиллерию.
21
00:02:46,688 --> 00:02:50,445
И в корпусе их недостаточно.
Давай попробуем что-нибудь другое.
22
00:02:50,645 --> 00:02:54,897
Товарищ майор, вызовите капитана Леши.
- Что он может сделать?
23
00:02:55,083 --> 00:02:58,521
Он придумает. Здесь только хитрость
в помощь.
24
00:02:59,792 --> 00:03:04,697
Так смотри. В Урошеваце с горсткой людей
взял немецкий аэропорт.
25
00:03:05,095 --> 00:03:08,761
В Ругове разрушил мост и заставил
танковую колонну сдаться.
26
00:03:08,932 --> 00:03:12,037
В Приштине взял в плен немецкий эшелон
с боеприпасами, и еще как!


[torrentc.info]_t_5562637.torrent
Торрент: Зарегистрирован ·  [ 2018-05-16 23:06 ] ·  bfe0be7ba730491ad8c4ada8e2b1f767ec80941d

14 KB

Статус: проверено
Скачан: 0 раз
Размер: 1.37 GB
Оценка: 
(Голосов: 0)
Сказали спасибо: 0  Спасибо
Похожие темы
[Профиль]    [ЛС]
Показать сообщения:    
Ответить на тему

Текущее время: Сегодня 12:15

Часовой пояс: GMT + 7



Вы не можете начинать темы
Вы не можете отвечать на сообщения
Вы не можете редактировать свои сообщения
Вы не можете удалять свои сообщения
Вы не можете голосовать в опросах
Вы не можете прикреплять файлы к сообщениям
Вы можете скачивать файлы