Невероятные приключения Джоджо (ТВ-3) / JoJo no Kimyou na Bouken: Diamond wa Kudakenai (Като Тосиюки) [TV] [39 из 39] [без хардсаба] [RUS(ext),JAP+SUB] [2016, приключения, фэнтези, BDRip] [1080p]

Ответить на тему
Статистика раздачи [Обновить пиров]
Размер:  65.32 GB   |    Зарегистрирован:  5 месяцев 4 дня   |    Скачан:  0 раз

Полного источника не было: Никогда

 
   
 
 
 
Автор Сообщение

torrentc.info

Создавать темы 16-Май-2018 19:58

[Цитировать]

Невероятные приключения Джоджо (ТВ-3) / JoJo no Kimyou na Bouken: Diamond wa Kudakenai / JoJo's Bizarre Adventure: Diamond is Unbreakable- Страна: Япония
Год выхода: 2016
Жанр: приключения, фэнтези
Тип: TV
Продолжительность: 39 эп. по ~24 мин-Режиссёр: Като Тосиюки
Снято по манге: JoJo no Kimyou na Bouken
Автор оригинала: Араки Хирохико
Студия: David Production-Озвучка:
Одноголосная (жен.) Persona 99 (Get Smart)-Субтитры:
русские (внешние) ASS полные
Cafesubs
Переводчик: Anku
Редактор/Перевод песен/Оформление: mutagenb
-Описание: Четвёртая часть безумных приключений ДжоДжо разворачивается спустя одиннадцать лет после событий Stardust Crusaders, когда Джотаро Куджо возвращается в Японию в поисках Джоске Хигащикаты — внебрачного сына Джозефа Джостара. Вот только вместе с юным дядей Джотаро в городе Морио оказывается огромное количество новых пользователей стандов, возникших словно из ниоткуда...-Информационные ссылки: AniDB | MyAnimeList | World Art-Качество: BDRip
/Автор рипа: LittleBakas!
Совместимость с бытовыми плеерами: Нет
Наличие линковки: Нет
Тип видео: без хардсаба
Формат файла: MKV
Видео: HEVC, 1920x1080, (16/9), ~8480бит/с, 23.976fps, 10 bit
Аудио #1 (внешняя) русская - AAC, 2 ch, 192-224кбит/с, 48000Hz
Аудио #2 (в контейнере) японская - FLAC, 2 ch, ~1500кбит/с, 48000Hz-

Инструкция по просмотру

* Чтобы смотреть с озвучкой, необходимо из папки Rus sound переписать файлы в папку, где находятся видеофайлы. Далее, следует запустить плеер и переключиться на mka-дорожку. Подробное описание здесь
* Чтобы смотреть 10-битное видео (10bit), необходимо, исходя из ваших предпочтений используемого проигрывателя, воспользоваться
этой инструкцией.
* Чтобы смотреть с субтитрами, необходимо из папки Rus subs переписать файлы в папку, где находятся видеофайлы. В большинстве плееров, одноимённые субтитры подключатся автоматически.
-

Эта серия состоит из:

#1 Невероятные приключения ДжоДжо OVA-1 - OVA (6 эп.), адаптация манги, 1993
#2 Невероятные приключения ДжоДжо OVA-2 - OVA (7 эп.), предыстория, 2000
#3 Невероятные приключения ДжоДжо (фильм) - п/ф, адаптация манги, 2007
#4 Невероятные приключения Джоджо [ТВ-1] - ТВ (26 эп.), адаптация манги, 2012
#5 Невероятные приключения Джоджо [ТВ-2, сезон 1] - ТВ (24 эп.), продолжение, 2014
#6 Невероятные приключения Джоджо [ТВ-2, сезон 2] - ТВ (24 эп.), продолжение, 2015
#7 Невероятные приключения Джоджо [ТВ-3] - ТВ, продолжение, 2016 / 720p
#8 Так говорил Рохан Кисибэ - OVA (2 эп.), адаптация манги, 2017
На трекере также есть другие варианты раздач
-

Список эпизодов

01. Куджо Джотаро встречает Хигашикату Джоске
02. Хигашиката Джоске встречает Анджело
03. Братья Нидзимура, часть 1
04. Братья Нидзимура, часть 2
05. Братья Нидзимура, часть 3
06. Хиросэ Коичи (Эхо)
07. Хадзамада Тосикадзу (Поверхность)
08. Ямагаси Юкако влюбляется, часть 1
09. Ямагаси Юкако влюбляется, часть 2
10. Пойдём поедим итальянских блюд
11. Красный острый чилийский перец, часть 1
12. Красный острый чилийский перец, часть 2
13. Мы подобрали нечто опасное!
14. Пойдём в гости к мангаке, часть 1
15. Пойдём в гости к мангаке, часть 2
16. Пойдём поохотимся!
17. Приключения Кишибэ Рохана
18. Жатва Сигэти, часть 1
19. Жатва Сигэти, часть 2
20. Ямагиси Юкако восхищена Золушкой
21. Кира Ёсикагэ желает мирной жизни, часть 1
22. Кира Ёсикагэ желает мирной жизни, часть 2
23. Острый сердечный приступ, часть 1
24. Острый сердечный приступ, часть 2
25. Отец с атомным сердцем
26. Маленький любитель камень-ножницы-бумаги в деле!
27. Я — пришелец
28. Звезда автострады, часть 1
29. Звезда автострады, часть 2
30. Кот любит Киру Ёсикагэ
31. Пятнадцатое июля (четверг), часть 1
32. Пятнадцатое июля (четверг), часть 2
33. Пятнадцатое июля (четверг), часть 3
34. Пятнадцатое июля (четверг), часть 4
35. Ещё один повержен в прах, часть 1
36. Ещё один повержен в прах, часть 2
37. Безумный Б (бриллиант) несокрушим, часть 1
38. Безумный Б (бриллиант) несокрушим, часть 2
39. Прощай, Морио. Золотые сердца
- -

Скриншоты

-

MediaInfo

Общее
Уникальный идентификатор : 255198372739536924793550212163626924345 (0xBFFD6B3548AA08629850BC291258F939)
Полное имя : D:\Торенты №2\JoJo's Bizarre Adventure Diamond is Unbreakable [BDRip 1080p]\JoJo no Kimyou na Bouken - Diamond wa Kudakenai 2016 - EP19 [BD 1920x1080 HEVC-yuv444p10 FLAC Chap] - LittleBakas!.mkv
Формат файла : Matroska
Версия формата : Version 4 / Version 2
Размер файла : 1,66 Гбайт
Продолжительность : 23 м.
Режим общего битрейта : Переменный
Общий поток : 10,0 Мбит/сек
Дата кодирования : UTC 2017-06-06 08:18:50
Программа кодирования : mkvmerge v12.0.0 ('Trust / Lust') 64bit
Библиотека кодирования : libebml v1.3.4 + libmatroska v1.4.5
Attachments : LittleBakas!
Видео
Идентификатор : 1
Формат файла : HEVC
Формат файла/Информация : High Efficiency Video Coding
Профиль формата : @L4@Main
Идентификатор кодека : V_MPEGH/ISO/HEVC
Продолжительность : 23 м.
Битрейт : 8480 Кбит/сек
Ширина : 1920 пикселей
Высота : 1080 пикселей
Соотношение сторон : 16:9
Режим частоты кадров : Постоянный
Частота кадров : 23,976 (24000/1001) кадра/сек
Цветовое пространство : YUV
Субдискретизация насыщенности : 4:4:4
Битовая глубина : 10 бит
Бит/(Пиксели*Кадры) : 0.171
Размер потока : 1,41 Гбайт (85%)
Библиотека кодирования : x265 2.4+8-b8051a309a05:[Windows][MSVC 1910][64 bit] 10bit
Настройки программы : cpuid=1173503 / frame-threads=6 / numa-pools=10 / wpp / no-pmode / no-pme / no-psnr / ssim / log-level=2 / input-csp=3 / input-res=1920x1080 / interlace=0 / total-frames=0 / level-idc=0 / high-tier=1 / uhd-bd=0 / ref=4 / no-allow-non-conformance / no-repeat-headers / annexb / no-aud / no-hrd / info / hash=0 / no-temporal-layers / no-open-gop / min-keyint=1 / keyint=720 / bframes=8 / b-adapt=2 / b-pyramid / bframe-bias=0 / rc-lookahead=40 / lookahead-slices=1 / scenecut=40 / no-intra-refresh / ctu=32 / min-cu-size=8 / no-rect / no-amp / max-tu-size=32 / tu-inter-depth=2 / tu-intra-depth=2 / limit-tu=4 / rdoq-level=2 / dynamic-rd=0.00 / ssim-rd / signhide / no-tskip / nr-intra=0 / nr-inter=0 / no-constrained-intra / no-strong-intra-smoothing / max-merge=4 / limit-refs=3 / limit-modes / me=3 / subme=3 / merange=57 / temporal-mvp / weightp / weightb / no-analyze-src-pics / deblock=0:0 / no-sao / no-sao-non-deblock / rd=4 / no-early-skip / rskip / no-fast-intra / no-tskip-fast / no-cu-lossless / b-intra / rdpenalty=2 / psy-rd=1.00 / psy-rdoq=1.00 / no-rd-refine / analysis-mode=0 / no-lossless / cbqpoffs=2 / crqpoffs=2 / rc=crf / crf=18.0 / qcomp=0.65 / qpstep=1 / stats-write=0 / stats-read=0 / ipratio=1.20 / pbratio=1.00 / aq-mode=1 / aq-strength=0.80 / cutree / zone-count=0 / no-strict-cbr / qg-size=8 / no-rc-grain / qpmax=69 / qpmin=0 / sar=0 / overscan=0 / videoformat=5 / range=0 / colorprim=1 / transfer=1 / colormatrix=1 / chromaloc=0 / display-window=0 / max-cll=0,0 / min-luma=0 / max-luma=1023 / log2-max-poc-lsb=8 / vui-timing-info / vui-hrd-info / slices=1 / opt-qp-pps / opt-ref-list-length-pps / no-multi-pass-opt-rps / scenecut-bias=0.05 / no-opt-cu-delta-qp / no-aq-motion / no-hdr / no-hdr-opt / no-dhdr10-opt / refine-level=5 / no-limit-sao
Язык : Japanese
Default : Да
Forced : Нет
Цветовой диапазон : Limited
Основные цвета : BT.709
Характеристики трансфера : BT.709
Коэффициенты матрицы : BT.709
Аудио
Идентификатор : 2
Формат файла : FLAC
Формат файла/Информация : Free Lossless Audio Codec
Идентификатор кодека : A_FLAC
Продолжительность : 23 м.
Вид битрейта : Переменный
Битрейт : 1522 Кбит/сек
Каналы : 2 канала
Расположение каналов : Front: L R
Частота : 48,0 КГц
Частота кадров : 11,719 кадров/сек (4096 spf)
Битовая глубина : 24 бит
Размер потока : 258 Мбайт (15%)
Библиотека кодирования : libFLAC 1.3.1 (UTC 2014-11-25)
Язык : Japanese
Default : Да
Forced : Нет
Меню
00:00:00.000 : en:Avant
00:00:50.050 : en:OP
00:02:03.498 : en:A Part
00:11:23.016 : en:B Part
00:22:28.013 : en:ED
00:23:37.499 : en:Next
-


[torrentc.info]_t_5562306.torrent
Торрент: Зарегистрирован ·  [ 2018-05-16 19:58 ] ·  dc3d7acbace519bb5ab442929d1034d6edf01aa4

182 KB

Статус: проверено
Скачан: 0 раз
Размер: 65.32 GB
Оценка: 
(Голосов: 0)
Сказали спасибо: 0  Спасибо
Похожие темы
[Профиль]    [ЛС]
Показать сообщения:    
Ответить на тему

Текущее время: Сегодня 00:42

Часовой пояс: GMT + 7



Вы не можете начинать темы
Вы не можете отвечать на сообщения
Вы не можете редактировать свои сообщения
Вы не можете удалять свои сообщения
Вы не можете голосовать в опросах
Вы не можете прикреплять файлы к сообщениям
Вы можете скачивать файлы