Бродяги Севера (Игорь Негреску) [1983, детский фильм, приключения, SATRip]

Ответить на тему
Статистика раздачи [Обновить пиров]
Размер:  1.35 GB   |    Зарегистрирован:  5 месяцев 5 дней   |    Скачан:  0 раз

Полного источника не было: Никогда

 
   
 
 
 
Автор Сообщение

torrentc.info

Создавать темы 15-Май-2018 18:49

[Цитировать]

Бродяги Севера
Жанр: детский фильм, приключения
Год выхода: 1983
Продолжительность: 01:14:12
Режиссёр: Игорь Негреску
В ролях: Валерия Цой, Петерис Гаудиньш, Николай Кузьмин, Александр Агапов, Стасис Петронайтис, и др.
Описание: Бурый медвежонок и домашний щенок, по воле случая вынуждены путешествовать в обществе друг друга.
Маленькие друзья по несчастью, пытаются выжить в мире полном опасностей, в жестоких условиях дикого мира канадского северо-запада, и в мире жестоких людей!
Но каждому природа назначила своё — один зимой впадает в спячку, второй должен бороться...
Рассказ о жизни природы, о дружбе и верности щенка Мики и бурого медвежонка Неевы...
Фильм снят по мотивам одноименной повести канадского писателя Джеймса Оливера Кервуда.

Качество видео: SATRip
Формат файла: AVI
Видео: 720x544 (1.32:1), 25 fps, XviD build 73 ~2372 kbps avg, 0.24 bit/pixel
Аудио: 48 kHz, MPEG Layer 3, 2 ch, ~224.00 kbps avg

AviInfo

File: Brodyagi Severa 1983 SATRip.aviTitle: Brodyagi Severa 1983 SATRipAuthor: OGORODNIKOFFFCopyleft: OGORODNIKOFFFGenre: художественныйCategory: 1983Comment: 4 мая 2018 г.Filesize: 1383.78 Mb ( 1 450 997 760 bytes )Play length: 01:14:12.959 (111324 frames)Subtitles: Not PresentVideo: 720x544 (1.32:1), 25 fps, XviD build 73 ~2372 kbps avg, 0.24 bit/pixelAudio: 48 kHz, MPEG Layer 3, 2 ch, ~224.00 kbps avg

MediaInfo

ОбщееПолное имя : F:\Brodyagi Severa 1983 SATRip.aviФормат файла : AVIФормат файла/Информация : Audio Video InterleaveРазмер файла : 1,35 ГбайтПродолжительность : 1 ч. 14 м.Общий поток : 2607 Кбит/секНазвание фильма : Brodyagi Severa 1983 SATRipРежиссёр : OGORODNIKOFFFЖанр : художественныйПрограмма кодирования : VirtualDubMod 1.5.4.1 (build 2178/release)Формат файла оригинала/Имя : 1983Авторское право : OGORODNIKOFFFПримечание : 4 мая 2018 г.
ВидеоИдентификатор : 0Формат файла : MPEG-4 VisualПрофиль формата : Advanced Simple@L5Настройки формата : BVOP2 / Custom MatrixПараметр BVOP формата : 2Параметр QPel формата : НетПараметр GMC формата : Без точки переходаПараметр матрицы формата : ВыборочнаяИдентификатор кодека : DX50Идентификатор кодека/Подсказка : DivX 5Продолжительность : 1 ч. 14 м.Битрейт : 2373 Кбит/секШирина : 720 пикселейВысота : 544 пикселяСоотношение сторон : 4:3Частота кадров : 25,000 кадров/секЦветовое пространство : YUVСубдискретизация насыщенности : 4:2:0Битовая глубина : 8 битТип развёртки : ПрогрессивнаяМетод сжатия : С потерямиБит/(Пиксели*Кадры) : 0.242Размер потока : 1,23 Гбайт (91%)Библиотека кодирования : XviD 73
АудиоИдентификатор : 1Формат файла : MPEG AudioВерсия формата : Version 1Профиль формата : Layer 3Настройки формата : Joint stereo / MS StereoРежим : Joint stereoРасширение режима : MS StereoИдентификатор кодека : 55Идентификатор кодека/Подсказка : MP3Продолжительность : 1 ч. 14 м.Вид битрейта : ПостоянныйБитрейт : 224 Кбит/секКаналы : 2 каналаЧастота : 48,0 КГцМетод сжатия : С потерямиРазмер потока : 119 Мбайт (9%)Выравнивание : Соединение по промежуткамПродолжительность промежутка : 40 мс. (1,00 видеокадр)Время предзагрузки промежутка : 504 мс.Библиотека кодирования : LAME3.100В

Скриншот c названием фильма



[torrentc.info]_t_5560601.torrent
Торрент: Зарегистрирован ·  [ 2018-05-15 18:49 ] ·  ccadd33c833e5670d502a1bbcaa58d826c2c40bf

14 KB

Статус: проверено
Скачан: 0 раз
Размер: 1.35 GB
Оценка: 
(Голосов: 0)
Сказали спасибо: 0  Спасибо
Похожие темы
[Профиль]    [ЛС]
Показать сообщения:    
Ответить на тему

Текущее время: Сегодня 01:01

Часовой пояс: GMT + 7



Вы не можете начинать темы
Вы не можете отвечать на сообщения
Вы не можете редактировать свои сообщения
Вы не можете удалять свои сообщения
Вы не можете голосовать в опросах
Вы не можете прикреплять файлы к сообщениям
Вы можете скачивать файлы