Небеса могут подождать / Heaven Can Wait (Эрнст Любич / Ernst Lubitsch) [1943, США, фэнтези, драма, мелодрама, комедия, WEB-DLRip] AVO (Либергал) + Sub Eng + Original Eng

Ответить на тему
Статистика раздачи [Обновить пиров]
Размер:  1.61 GB   |    Зарегистрирован:  5 месяцев 3 дня   |    Скачан:  0 раз

Полного источника не было: Никогда

 
   
 
 
 
Автор Сообщение

torrentc.info

Создавать темы 15-Май-2018 00:05

[Цитировать]

Небеса могут подождать / Heaven Can Wait
Страна: США
Жанр: фэнтези, драма, мелодрама, комедия
Год выхода: 1943
Продолжительность: 01:52:23
Перевод: Авторский (одноголосый закадровый) - Григорий Либергал
Субтитры: английские
Оригинальная аудиодорожка: английский

Режиссер: Эрнст Любич / Ernst Lubitsch
В ролях: Джин Тирни, Дон Амичи, Чарльз Коберн, Марджори Майн, Лэйрд Крегар, Спринг Байинтон, Эллин Джослин, Юджин Пэллет, Синье Хассо, Луи Кэлхерн
Описание: Очаровательная комедия с искусно вплетенной сатирой, загримированной под легкую насмешливость, поставлена по венгерской пьесе "Дни рождения" ("Birthdays") Ладислауса Бус-Фекете с некоторыми добавлениями от Сэмсона Рэфэлсона. Скончавшийся Генри Ван Клив, мертвый, стоит перед Дьяволом, требующим предъявить пропуск в Ад. Дьявол тщательно изучает поступившего в его владения, рассматривает всю жизнь Генри...
Сэмпл
Качество видео: WEB-DLRip
Формат файла: AVI
Видео: 640x480 (1.33:1), 23.976 fps, XviD build 73 ~1653 kbps avg, 0.22 bit/pixel
Аудио: 48 kHz, AC3 Dolby Digital, 2/0 (L,R) ch, ~192 kbps - авторский
Аудио: 48 kHz, AC3 Dolby Digital, 2/0 (L,R) ch, ~192 kbps - оригинал (отдельным файлом)
Формат файла субтитров: softsub (SRT)

Источник: Torrentc

http://Torrentc/forum/viewtopic.php?t=1103939

MediaInfo

GeneralComplete name : H:\Heaven.Can.Wait.1943.web-dlrip_[1.46]_[teko]\Heaven.Can.Wait.1943.web-dlrip_[1.46].aviFormat : AVIFormat/Info : Audio Video InterleaveFile size : 1.46 GiBDuration : 1h 52mnOverall bit rate : 1 855 KbpsWriting application : VirtualDubMod 1.5.10.3 | www.virtualdub-fr.org || (build 2550/release)Writing library : VirtualDubMod build 2550/release
VideoID : 0Format : MPEG-4 VisualFormat profile : Advanced Simple@L5Format settings, BVOP : 2Format settings, QPel : NoFormat settings, GMC : No warppointsFormat settings, Matrix : CustomCodec ID : XVIDCodec ID/Hint : XviDDuration : 1h 52mnBit rate : 1 654 KbpsWidth : 640 pixelsHeight : 480 pixelsDisplay aspect ratio : 4:3Frame rate : 23.976 (23976/1000) fpsColor space : YUVChroma subsampling : 4:2:0Bit depth : 8 bitsScan type : ProgressiveCompression mode : LossyBits/(Pixel*Frame) : 0.225Stream size : 1.30 GiB (89%)Writing library : XviD 73
AudioID : 1Format : AC-3Format/Info : Audio Coding 3Mode extension : CM (complete main)Format settings, Endianness : BigCodec ID : 2000Duration : 1h 52mnBit rate mode : ConstantBit rate : 192 KbpsChannel(s) : 2 channelsChannel positions : Front: L RSampling rate : 48.0 KHzFrame rate : 31.250 fps (1536 spf)Compression mode : LossyStream size : 154 MiB (10%)Alignment : Split accross interleavesInterleave, duration : 42 ms (1.00 video frame)Interleave, preload duratio : 500 ms
:--


[torrentc.info]_t_5561855.torrent
Торрент: Зарегистрирован ·  [ 2018-05-15 00:05 ] ·  80128ae1866daa33e2e2b97320a01eb00722700c

17 KB

Статус: проверено
Скачан: 0 раз
Размер: 1.61 GB
Оценка: 
(Голосов: 0)
Сказали спасибо: 0  Спасибо
Похожие темы
[Профиль]    [ЛС]
Показать сообщения:    
Ответить на тему

Текущее время: Сегодня 01:19

Часовой пояс: GMT + 7



Вы не можете начинать темы
Вы не можете отвечать на сообщения
Вы не можете редактировать свои сообщения
Вы не можете удалять свои сообщения
Вы не можете голосовать в опросах
Вы не можете прикреплять файлы к сообщениям
Вы можете скачивать файлы