(Experimental/Progressive/Psychedelic/Space Rock/Krautrock/Ambient) [WEB] Bëiruth (Beiruth) - Horizonte de Sucesos - 2008, FLAC (tracks), lossless

Ответить на тему
Статистика раздачи [Обновить пиров]
Размер:  369 MB   |    Зарегистрирован:  7 месяцев 1 день   |    Скачан:  0 раз

Полного источника не было: Никогда

 
   
 
 
 
Автор Сообщение

torrentc.info

Создавать темы 14-Май-2018 22:59

[Цитировать]

Bëiruth / Horizonte de Sucesos
Жанр: Experimental/Progressive/Psychedelic/Space Rock/Krautrock/Ambient
Носитель: WEB
Год издания: 2008
Страна исполнителя (группы): Spain
Аудиокодек: FLAC (*.flac)
Тип рипа: tracks
Битрейт аудио: lossless
Продолжительность: 01:04:34
Источник (релизер): Bandcamp
Наличие сканов в содержимом раздачи: нет

01. Penumbra Difusa [00:19:21]
02. Alamut [00:04:27]
03. C.C.C.P. [00:19:56]
04. Horizonte de Sucesos [00:20:49]
Состав:
Carlos Segura - Percusión, Drums, Synths, Vocoder
Juan Ángel Gómez - Guitar, Synths
Jesús Arnáiz - Bass, Synths, Vocoder
Released December 1, 2008--

Лог проверки качества

-----------------------
DON'T MODIFY THIS FILE
-----------------------
PERFORMER: auCDtect Task Manager, ver. 1.6.0 RC1 build 1.6.0.1Copyright (c) 2008-2010 y-soft. All rights reservedhttp://y-soft.org
ANALYZER: auCDtect: CD records authenticity detector, version 0.8.2Copyright (c) 2004 Oleg Berngardt. All rights reserved.Copyright (c) 2004 Alexander Djourik. All rights reserved.
FILE: Bëiruth - Horizonte de Sucesos - 04 Horizonte de Sucesos.flac Size: 115570097 Hash: F4D833908C141E338A8DD2A55CF4725B Accuracy: -m0 Conclusion: CDDA 100% Signature: F2804DBF7F82D4EAC8DE67E1EEF168E7255BB9D0FILE: Bëiruth - Horizonte de Sucesos - 03 C.C.C.P..flac Size: 122728782 Hash: 8632410DF3578B37365A0034573FB200 Accuracy: -m0 Conclusion: CDDA 99% Signature: B18679D3A7448AD9D782F4D8FA78033B2650107BFILE: Bëiruth - Horizonte de Sucesos - 02 Alamut.flac Size: 27635733 Hash: 2CE87965E13F0DEA459A34E8342713D1 Accuracy: -m0 Conclusion: CDDA 100% Signature: 27F717E4C53D5326C760DED173B6A4614D129656FILE: Bëiruth - Horizonte de Sucesos - 01 Penumbra Difusa.flac Size: 119975137 Hash: 092760DE123E45241CC773180D955B9C Accuracy: -m0 Conclusion: CDDA 100% Signature: 7FCF46EF0E6782EC75E92ADAD96503FF88866D26

DRM log

foobar2000 1.3.12 / Dynamic Range Meter 1.1.1log date: 2018-05-11 14:55:21
--------------------------------------------------------------------------------Analyzed: Bëiruth / Horizonte de Sucesos--------------------------------------------------------------------------------
DR Peak RMS Duration Track--------------------------------------------------------------------------------DR11 0.00 dB -14.77 dB 19:21 01-Penumbra DifusaDR12 0.00 dB -14.72 dB 4:28 02-AlamutDR11 -0.10 dB -15.33 dB 19:56 03-C.C.C.P.DR14 -0.10 dB -17.38 dB 20:50 04-Horizonte de Sucesos--------------------------------------------------------------------------------
Number of tracks: 4Official DR value: DR12
Samplerate: 44100 HzChannels: 2Bits per sample: 16Bitrate: 740 kbpsCodec: FLAC================================================================================
--


[torrentc.info]_t_5560360.torrent
Торрент: Зарегистрирован ·  [ 2018-05-14 22:58 ] ·  02ce8ab54f45065a06fdc70aac0c6d98ec57723e

15 KB

Статус: проверено
Скачан: 0 раз
Размер: 369 MB
Оценка: 
(Голосов: 0)
Сказали спасибо: 0  Спасибо
Похожие темы
[Профиль]    [ЛС]
Показать сообщения:    
Ответить на тему

Текущее время: Сегодня 23:11

Часовой пояс: GMT + 7



Вы не можете начинать темы
Вы не можете отвечать на сообщения
Вы не можете редактировать свои сообщения
Вы не можете удалять свои сообщения
Вы не можете голосовать в опросах
Вы не можете прикреплять файлы к сообщениям
Вы можете скачивать файлы